  0
SECTION
  2
HEADER
  9
$ACADVER
  1
AC1015
  9
$ACADMAINTVER
 70
     6
  9
$DWGCODEPAGE
  3
ANSI_1252
  9
$INSBASE
 10
0.0
 20
0.0
 30
0.0
  9
$EXTMIN
 10
0.0
 20
0.0
 30
0.0
  9
$EXTMAX
 10
210.0
 20
297.0
 30
0.0
  9
$LIMMIN
 10
0.0
 20
0.0
  9
$LIMMAX
 10
210.0
 20
297.0
  9
$ORTHOMODE
 70
     0
  9
$REGENMODE
 70
     1
  9
$FILLMODE
 70
     1
  9
$QTEXTMODE
 70
     0
  9
$MIRRTEXT
 70
     1
  9
$LTSCALE
 40
1.0
  9
$ATTMODE
 70
     1
  9
$TEXTSIZE
 40
2.5
  9
$TRACEWID
 40
1.0
  9
$TEXTSTYLE
  7
Standard
  9
$CLAYER
  8
0
  9
$CELTYPE
  6
ByLayer
  9
$CECOLOR
 62
   256
  9
$CELTSCALE
 40
1.0
  9
$DISPSILH
 70
     0
  9
$DIMSCALE
 40
1.0
  9
$DIMASZ
 40
2.5
  9
$DIMEXO
 40
0.625
  9
$DIMDLI
 40
3.75
  9
$DIMRND
 40
0.0
  9
$DIMDLE
 40
0.0
  9
$DIMEXE
 40
1.25
  9
$DIMTP
 40
0.0
  9
$DIMTM
 40
0.0
  9
$DIMTXT
 40
2.5
  9
$DIMCEN
 40
2.5
  9
$DIMTSZ
 40
0.0
  9
$DIMTOL
 70
     0
  9
$DIMLIM
 70
     0
  9
$DIMTIH
 70
     0
  9
$DIMTOH
 70
     0
  9
$DIMSE1
 70
     0
  9
$DIMSE2
 70
     0
  9
$DIMTAD
 70
     1
  9
$DIMZIN
 70
     8
  9
$DIMBLK
  1

  9
$DIMASO
 70
     1
  9
$DIMSHO
 70
     1
  9
$DIMPOST
  1

  9
$DIMAPOST
  1

  9
$DIMALT
 70
     0
  9
$DIMALTD
 70
     3
  9
$DIMALTF
 40
0.0393700787
  9
$DIMLFAC
 40
1.0
  9
$DIMTOFL
 70
     1
  9
$DIMTVP
 40
0.0
  9
$DIMTIX
 70
     0
  9
$DIMSOXD
 70
     0
  9
$DIMSAH
 70
     0
  9
$DIMBLK1
  1

  9
$DIMBLK2
  1

  9
$DIMSTYLE
  2
ISO-25
  9
$DIMCLRD
 70
     0
  9
$DIMCLRE
 70
     0
  9
$DIMCLRT
 70
     0
  9
$DIMTFAC
 40
1.0
  9
$DIMGAP
 40
0.625
  9
$DIMJUST
 70
     0
  9
$DIMSD1
 70
     0
  9
$DIMSD2
 70
     0
  9
$DIMTOLJ
 70
     0
  9
$DIMTZIN
 70
     8
  9
$DIMALTZ
 70
     0
  9
$DIMALTTZ
 70
     0
  9
$DIMUPT
 70
     0
  9
$DIMDEC
 70
     2
  9
$DIMTDEC
 70
     2
  9
$DIMALTU
 70
     2
  9
$DIMALTTD
 70
     3
  9
$DIMTXSTY
  7
Standard
  9
$DIMAUNIT
 70
     0
  9
$DIMADEC
 70
     0
  9
$DIMALTRND
 40
0.0
  9
$DIMAZIN
 70
     0
  9
$DIMDSEP
 70
    44
  9
$DIMATFIT
 70
     3
  9
$DIMFRAC
 70
     0
  9
$DIMLDRBLK
  1

  9
$DIMLUNIT
 70
     2
  9
$DIMLWD
 70
    -2
  9
$DIMLWE
 70
    -2
  9
$DIMTMOVE
 70
     0
  9
$LUNITS
 70
     2
  9
$LUPREC
 70
     4
  9
$SKETCHINC
 40
1.0
  9
$FILLETRAD
 40
10.0
  9
$AUNITS
 70
     0
  9
$AUPREC
 70
     0
  9
$MENU
  1
.
  9
$ELEVATION
 40
0.0
  9
$PELEVATION
 40
0.0
  9
$THICKNESS
 40
0.0
  9
$LIMCHECK
 70
     0
  9
$CHAMFERA
 40
10.0
  9
$CHAMFERB
 40
10.0
  9
$CHAMFERC
 40
20.0
  9
$CHAMFERD
 40
0.0
  9
$SKPOLY
 70
     0
  9
$TDCREATE
 40
2455328.479257153
  9
$TDUCREATE
 40
2455328.395923819
  9
$TDUPDATE
 40
2455328.479257165
  9
$TDUUPDATE
 40
2455328.395923831
  9
$TDINDWG
 40
0.0000000116
  9
$TDUSRTIMER
 40
0.0000000116
  9
$USRTIMER
 70
     1
  9
$ANGBASE
 50
0.0
  9
$ANGDIR
 70
     0
  9
$PDMODE
 70
     0
  9
$PDSIZE
 40
0.0
  9
$PLINEWID
 40
0.0
  9
$SPLFRAME
 70
     0
  9
$SPLINETYPE
 70
     6
  9
$SPLINESEGS
 70
     8
  9
$HANDSEED
  5
E4
  9
$SURFTAB1
 70
     6
  9
$SURFTAB2
 70
     6
  9
$SURFTYPE
 70
     6
  9
$SURFU
 70
     6
  9
$SURFV
 70
     6
  9
$UCSBASE
  2

  9
$UCSNAME
  2

  9
$UCSORG
 10
0.0
 20
0.0
 30
0.0
  9
$UCSXDIR
 10
1.0
 20
0.0
 30
0.0
  9
$UCSYDIR
 10
0.0
 20
1.0
 30
0.0
  9
$UCSORTHOREF
  2

  9
$UCSORTHOVIEW
 70
     0
  9
$UCSORGTOP
 10
0.0
 20
0.0
 30
0.0
  9
$UCSORGBOTTOM
 10
0.0
 20
0.0
 30
0.0
  9
$UCSORGLEFT
 10
0.0
 20
0.0
 30
0.0
  9
$UCSORGRIGHT
 10
0.0
 20
0.0
 30
0.0
  9
$UCSORGFRONT
 10
0.0
 20
0.0
 30
0.0
  9
$UCSORGBACK
 10
0.0
 20
0.0
 30
0.0
  9
$PUCSBASE
  2

  9
$PUCSNAME
  2

  9
$PUCSORG
 10
0.0
 20
0.0
 30
0.0
  9
$PUCSXDIR
 10
1.0
 20
0.0
 30
0.0
  9
$PUCSYDIR
 10
0.0
 20
1.0
 30
0.0
  9
$PUCSORTHOREF
  2

  9
$PUCSORTHOVIEW
 70
     0
  9
$PUCSORGTOP
 10
0.0
 20
0.0
 30
0.0
  9
$PUCSORGBOTTOM
 10
0.0
 20
0.0
 30
0.0
  9
$PUCSORGLEFT
 10
0.0
 20
0.0
 30
0.0
  9
$PUCSORGRIGHT
 10
0.0
 20
0.0
 30
0.0
  9
$PUCSORGFRONT
 10
0.0
 20
0.0
 30
0.0
  9
$PUCSORGBACK
 10
0.0
 20
0.0
 30
0.0
  9
$USERI1
 70
     0
  9
$USERI2
 70
     0
  9
$USERI3
 70
     0
  9
$USERI4
 70
     0
  9
$USERI5
 70
     0
  9
$USERR1
 40
0.0
  9
$USERR2
 40
0.0
  9
$USERR3
 40
0.0
  9
$USERR4
 40
0.0
  9
$USERR5
 40
0.0
  9
$WORLDVIEW
 70
     1
  9
$SHADEDGE
 70
     3
  9
$SHADEDIF
 70
    70
  9
$TILEMODE
 70
     1
  9
$MAXACTVP
 70
    64
  9
$PINSBASE
 10
0.0
 20
0.0
 30
0.0
  9
$PLIMCHECK
 70
     0
  9
$PEXTMIN
 10
0.0
 20
0.0
 30
0.0
  9
$PEXTMAX
 10
210.0
 20
297.0
 30
0.0
  9
$PLIMMIN
 10
0.0
 20
0.0
  9
$PLIMMAX
 10
210.0
 20
297.0
  9
$UNITMODE
 70
     0
  9
$VISRETAIN
 70
     1
  9
$PLINEGEN
 70
     0
  9
$PSLTSCALE
 70
     1
  9
$TREEDEPTH
 70
  3020
  9
$CMLSTYLE
  2
Standard
  9
$CMLJUST
 70
     0
  9
$CMLSCALE
 40
20.0
  9
$PROXYGRAPHICS
 70
     1
  9
$MEASUREMENT
 70
     1
  9
$CELWEIGHT
370
    -1
  9
$ENDCAPS
280
     0
  9
$JOINSTYLE
280
     0
  9
$LWDISPLAY
290
     0
  9
$INSUNITS
 70
     4
  9
$HYPERLINKBASE
  1

  9
$STYLESHEET
  1

  9
$XEDIT
290
     1
  9
$CEPSNTYPE
380
     0
  9
$PSTYLEMODE
290
     1
  9
$FINGERPRINTGUID
  2
{37413D27-4B51-4412-9B70-146D492EC724}
  9
$VERSIONGUID
  2
{FAEB1C32-E019-11D5-929B-00C0DF256EC4}
  9
$EXTNAMES
290
     1
  9
$PSVPSCALE
 40
0.0
  9
$OLESTARTUP
290
     0
  0
ENDSEC
  0
SECTION
  2
CLASSES
  0
CLASS
  1
ACDBDICTIONARYWDFLT
  2
AcDbDictionaryWithDefault
  3
ObjectDBX Classes
 90
        0
280
     0
281
     0
  0
CLASS
  1
VISUALSTYLE
  2
AcDbVisualStyle
  3
ObjectDBX Classes
 90
     4095
280
     0
281
     0
  0
CLASS
  1
SCALE
  2
AcDbScale
  3
ObjectDBX Classes
 90
     1153
280
     0
281
     0
  0
CLASS
  1
DICTIONARYVAR
  2
AcDbDictionaryVar
  3
ObjectDBX Classes
 90
        0
280
     0
281
     0
  0
CLASS
  1
ACDBPLACEHOLDER
  2
AcDbPlaceHolder
  3
ObjectDBX Classes
 90
        0
280
     0
281
     0
  0
CLASS
  1
LAYOUT
  2
AcDbLayout
  3
ObjectDBX Classes
 90
        0
280
     0
281
     0
  0
ENDSEC
  0
SECTION
  2
TABLES
  0
TABLE
  2
VPORT
  5
8
330
0
100
AcDbSymbolTable
 70
     1
  0
VPORT
  5
29
330
8
100
AcDbSymbolTableRecord
100
AcDbViewportTableRecord
  2
*Active
 70
     0
 10
0.0
 20
0.0
 11
1.0
 21
1.0
 12
344.1869158879
 22
148.5
 13
0.0
 23
0.0
 14
10.0
 24
10.0
 15
10.0
 25
10.0
 16
0.0
 26
0.0
 36
1.0
 17
0.0
 27
0.0
 37
0.0
 40
297.0
 41
1.9729729729
 42
50.0
 43
0.0
 44
0.0
 50
0.0
 51
0.0
 71
     0
 72
   100
 73
     1
 74
     3
 75
     0
 76
     0
 77
     0
 78
     0
281
     0
 65
     1
110
0.0
120
0.0
130
0.0
111
1.0
121
0.0
131
0.0
112
0.0
122
1.0
132
0.0
 79
     0
146
0.0
  0
ENDTAB
  0
TABLE
  2
LTYPE
  5
5
330
0
100
AcDbSymbolTable
 70
     2
  0
LTYPE
  5
14
330
5
100
AcDbSymbolTableRecord
100
AcDbLinetypeTableRecord
  2
ByBlock
 70
     0
  3

 72
    65
 73
     0
 40
0.0
  0
LTYPE
  5
15
330
5
100
AcDbSymbolTableRecord
100
AcDbLinetypeTableRecord
  2
ByLayer
 70
     0
  3

 72
    65
 73
     0
 40
0.0
  0
LTYPE
  5
16
330
5
100
AcDbSymbolTableRecord
100
AcDbLinetypeTableRecord
  2
Continuous
 70
     0
  3
Solid line
 72
    65
 73
     0
 40
0.0
  0
LTYPE
  5
7B
330
5
100
AcDbSymbolTableRecord
100
AcDbLinetypeTableRecord
  2
HIDDEN2
 70
     0
  3
Hidden (.5x) _ _ _ _ _ _ _ _ _ _ _ _ _ _ _ _ _ 
 72
    65
 73
     2
 40
4.7625
 49
3.175
 74
     4
 75
     0
340
0
 46
0.0
 50
0.0
 44
0.0
 45
0.0
 49
-1.5875
 74
     4
 75
     0
340
0
 46
0.0
 50
0.0
 44
0.0
 45
0.0
  0
ENDTAB
  0
TABLE
  2
LAYER
  5
2
330
0
100
AcDbSymbolTable
 70
     4
  0
LAYER
  5
10
330
2
100
AcDbSymbolTableRecord
100
AcDbLayerTableRecord
  2
0
 70
     0
 62
     7
  6
Continuous
370
    -3
390
F
  0
LAYER
  5
5D
330
2
100
AcDbSymbolTableRecord
100
AcDbLayerTableRecord
  2
Default
 70
     0
 62
     7
  6
Continuous
370
    -3
390
F
  0
LAYER
  5
60
330
2
100
AcDbSymbolTableRecord
100
AcDbLayerTableRecord
  2
MEGA_006646
 70
     0
 62
     7
  6
Continuous
370
    -3
390
F
  0
LAYER
  5
7A
330
2
100
AcDbSymbolTableRecord
100
AcDbLayerTableRecord
  2
DV1_Standard
 70
     0
 62
     7
  6
Continuous
370
    -3
390
F
  0
ENDTAB
  0
TABLE
  2
STYLE
  5
3
330
0
100
AcDbSymbolTable
 70
     3
  0
STYLE
  5
11
330
3
100
AcDbSymbolTableRecord
100
AcDbTextStyleTableRecord
  2
Standard
 70
     0
 40
0.0
 41
1.0
 50
0.0
 71
     0
 42
2.5
  3
txt
  4

  0
STYLE
  5
92
330
3
100
AcDbSymbolTableRecord
100
AcDbTextStyleTableRecord
  2
SEACAD_seiso_ttf
 70
     0
 40
0.0
 41
1.0
 50
0.0
 71
     0
 42
0.2
  3
seiso.ttf
  4

  0
STYLE
  5
95
330
3
100
AcDbSymbolTableRecord
100
AcDbTextStyleTableRecord
  2
SEACAD_semeci1_ttf
 70
     0
 40
0.0
 41
1.0
 50
0.0
 71
     0
 42
0.2
  3
semeci1.ttf
  4

  0
ENDTAB
  0
TABLE
  2
VIEW
  5
6
330
0
100
AcDbSymbolTable
 70
     0
  0
ENDTAB
  0
TABLE
  2
UCS
  5
7
330
0
100
AcDbSymbolTable
 70
     0
  0
ENDTAB
  0
TABLE
  2
APPID
  5
9
330
0
100
AcDbSymbolTable
 70
     1
  0
APPID
  5
12
330
9
100
AcDbSymbolTableRecord
100
AcDbRegAppTableRecord
  2
ACAD
 70
     0
  0
ENDTAB
  0
TABLE
  2
DIMSTYLE
  5
A
330
0
100
AcDbSymbolTable
 70
     3
100
AcDbDimStyleTable
  0
DIMSTYLE
105
27
330
A
100
AcDbSymbolTableRecord
100
AcDbDimStyleTableRecord
  2
ISO-25
 70
     0
 41
2.5
 42
0.625
 43
3.75
 44
1.25
 73
     0
 74
     0
 77
     1
 78
     8
140
2.5
141
2.5
143
0.0393700787
147
0.625
171
     3
172
     1
271
     2
272
     2
274
     3
278
    44
283
     0
284
     8
340
11
  0
DIMSTYLE
105
80
330
A
100
AcDbSymbolTableRecord
100
AcDbDimStyleTableRecord
  2
Standard
 70
     0
340
11
  0
DIMSTYLE
105
93
102
{ACAD_REACTORS
330
94
330
A0
330
AB
330
B6
330
C0
330
CA
330
D4
102
}
330
A
100
AcDbSymbolTableRecord
100
AcDbDimStyleTableRecord
  2
DIN
 70
     0
 41
3.0
 42
0.0
 44
1.5
 73
     0
 74
     0
 77
     1
 78
     8
140
3.0
141
1.5
147
1.5
172
     1
173
     1
271
     0
272
     0
278
    44
284
     8
340
92
343
8D
344
8D
  0
ENDTAB
  0
TABLE
  2
BLOCK_RECORD
  5
1
330
0
100
AcDbSymbolTable
 70
    12
  0
BLOCK_RECORD
  5
1F
330
1
100
AcDbSymbolTableRecord
100
AcDbBlockTableRecord
  2
*Model_Space
340
22
  0
BLOCK_RECORD
  5
1B
330
1
100
AcDbSymbolTableRecord
100
AcDbBlockTableRecord
  2
*Paper_Space
340
1E
  0
BLOCK_RECORD
  5
5E
330
1
100
AcDbSymbolTableRecord
100
AcDbBlockTableRecord
  2
SE
340
0
102
{BLKREFS
331
5F
102
}
  0
BLOCK_RECORD
  5
81
330
1
100
AcDbSymbolTableRecord
100
AcDbBlockTableRecord
  2
_OBLIQUE
340
0
  0
BLOCK_RECORD
  5
85
330
1
100
AcDbSymbolTableRecord
100
AcDbBlockTableRecord
  2
_DOT
340
0
  0
BLOCK_RECORD
  5
8D
330
1
100
AcDbSymbolTableRecord
100
AcDbBlockTableRecord
  2
_SE_FILLED
340
0
  0
BLOCK_RECORD
  5
96
330
1
100
AcDbSymbolTableRecord
100
AcDbBlockTableRecord
  2
DMBLK27
340
0
  0
BLOCK_RECORD
  5
A1
330
1
100
AcDbSymbolTableRecord
100
AcDbBlockTableRecord
  2
DMBLK28
340
0
  0
BLOCK_RECORD
  5
AC
330
1
100
AcDbSymbolTableRecord
100
AcDbBlockTableRecord
  2
DMBLK29
340
0
  0
BLOCK_RECORD
  5
B7
330
1
100
AcDbSymbolTableRecord
100
AcDbBlockTableRecord
  2
DMBLK30
340
0
  0
BLOCK_RECORD
  5
C1
330
1
100
AcDbSymbolTableRecord
100
AcDbBlockTableRecord
  2
DMBLK31
340
0
  0
BLOCK_RECORD
  5
CB
330
1
100
AcDbSymbolTableRecord
100
AcDbBlockTableRecord
  2
DMBLK32
340
0
  0
BLOCK_RECORD
  5
D5
330
1
100
AcDbSymbolTableRecord
100
AcDbBlockTableRecord
  2
DMBLK33
340
0
  0
ENDTAB
  0
ENDSEC
  0
SECTION
  2
BLOCKS
  0
BLOCK
  5
20
330
1F
100
AcDbEntity
  8
0
100
AcDbBlockBegin
  2
*Model_Space
 70
     0
 10
0.0
 20
0.0
 30
0.0
  3
*Model_Space
  1

  0
ENDBLK
  5
21
330
1F
100
AcDbEntity
  8
0
100
AcDbBlockEnd
  0
BLOCK
  5
1C
330
1B
100
AcDbEntity
 67
     1
  8
0
100
AcDbBlockBegin
  2
*Paper_Space
 70
     0
 10
0.0
 20
0.0
 30
0.0
  3
*Paper_Space
  1

  0
ENDBLK
  5
1D
330
1B
100
AcDbEntity
 67
     1
  8
0
100
AcDbBlockEnd
  0
BLOCK
  5
7E
330
5E
100
AcDbEntity
  8
0
100
AcDbBlockBegin
  2
SE
 70
     0
 10
0.0
 20
0.0
 30
0.0
  3
SE
  1

  0
LINE
  5
61
330
5E
100
AcDbEntity
  8
MEGA_006646
  6
Continuous
 62
     7
100
AcDbLine
 10
77.5721378325
 20
195.9785968755
 30
0.0
 11
53.5721378325
 21
195.9785968755
 31
0.0
  0
LINE
  5
62
330
5E
100
AcDbEntity
  8
MEGA_006646
  6
Continuous
 62
     7
100
AcDbLine
 10
73.2697554032
 20
204.9785968755
 30
0.0
 11
57.8697554032
 21
204.9785968755
 31
0.0
  0
LINE
  5
63
330
5E
100
AcDbEntity
  8
MEGA_006646
  6
Continuous
 62
     7
100
AcDbLine
 10
57.7197554032
 20
204.7285968755
 30
0.0
 11
57.7197554032
 21
204.8285966364
 31
0.0
  0
LINE
  5
64
330
5E
100
AcDbEntity
  8
MEGA_006646
  6
Continuous
 62
     7
100
AcDbLine
 10
57.6691225172
 20
204.6785968755
 30
0.0
 11
57.7197554032
 21
204.7285968755
 31
0.0
  0
LINE
  5
65
330
5E
100
AcDbEntity
  8
MEGA_006646
  6
Continuous
 62
     7
100
AcDbLine
 10
57.6691225172
 20
195.9785968755
 30
0.0
 11
57.6691225172
 21
204.6785968755
 31
0.0
  0
LINE
  5
66
330
5E
100
AcDbEntity
  8
MEGA_006646
  6
Continuous
 62
     7
100
AcDbLine
 10
73.4703882892
 20
204.6785968755
 30
0.0
 11
57.6691225172
 21
204.6785968755
 31
0.0
  0
LINE
  5
67
330
5E
100
AcDbEntity
  8
MEGA_006646
  6
Continuous
 62
     7
100
AcDbLine
 10
73.4197554032
 20
204.7285968755
 30
0.0
 11
73.4197554032
 21
204.8285966364
 31
0.0
  0
LINE
  5
68
330
5E
100
AcDbEntity
  8
MEGA_006646
  6
Continuous
 62
     7
100
AcDbLine
 10
73.4703882892
 20
204.6785968755
 30
0.0
 11
73.4197554032
 21
204.7285968755
 31
0.0
  0
LINE
  5
69
330
5E
100
AcDbEntity
  8
MEGA_006646
  6
Continuous
 62
     7
100
AcDbLine
 10
73.4703882892
 20
195.9785968755
 30
0.0
 11
73.4703882892
 21
204.6785968755
 31
0.0
  0
ARC
  5
6A
330
5E
100
AcDbEntity
  8
MEGA_006646
  6
Continuous
 62
     7
100
AcDbCircle
 10
39.7803836329
 20
191.385266238
 30
0.0
 40
13.76280545530946
100
AcDbArc
 50
347.985113525
 51
8.5748553217
  0
ARC
  5
6B
330
5E
100
AcDbEntity
  8
MEGA_006646
  6
Continuous
 62
     7
100
AcDbCircle
 10
159.4302757947
 20
173.0429498598
 30
0.0
 40
5.934565289967551
100
AcDbArc
 50
0.1949691203
 51
171.6534822127
  0
SPLINE
  5
6C
330
5E
100
AcDbEntity
  8
MEGA_006646
  6
Continuous
 62
     7
100
AcDbSpline
210
0.0
220
0.0
230
1.0
 70
     8
 71
     3
 72
    59
 73
    55
 74
     0
 42
0.0000000001143445
 43
0.0000000001
 40
0.0
 40
0.0
 40
0.0
 40
0.0
 40
0.022994176432445
 40
0.0524469658548176
 40
0.0891386053233635
 40
0.1275907452877799
 40
0.1677549604512261
 40
0.2031920722316376
 40
0.2396879803561182
 40
0.2772210799414737
 40
0.3157542144245536
 40
0.3353782390750241
 40
0.3551959254762888
 40
0.3746965285617846
 40
0.3944555421773917
 40
0.4140101649801506
 40
0.4332566449670853
 40
0.4521449108318815
 40
0.4706349659756218
 40
0.4945882641764761
 40
0.5176506663587606
 40
0.5397427893823095
 40
0.5608134913960033
 40
0.5809388370854038
 40
0.6016331746869564
 40
0.6197735635543048
 40
0.6385317646692873
 40
0.6579393032654984
 40
0.6783589763185625
 40
0.6918607352944462
 40
0.7056494182339734
 40
0.7180663901168027
 40
0.7286813926115047
 40
0.7374713910378581
 40
0.7423089699849996
 40
0.7463419846907916
 40
0.7495876106573074
 40
0.7534325485462137
 40
0.7587698081594295
 40
0.7651249906911903
 40
0.7815656763788782
 40
0.7997670095214872
 40
0.822701287720408
 40
0.846948049706267
 40
0.871496830815549
 40
0.895547387959541
 40
0.9190967540717982
 40
0.9412644008553933
 40
0.9494526656929521
 40
0.9573476831778102
 40
0.9652032271154708
 40
0.9747625442207012
 40
0.9863596534572009
 40
1.0
 40
1.0
 40
1.0
 40
1.0
 10
53.2471949271179
 20
188.5284083057513
 30
0.0
 10
53.24692952499582
 20
187.7912976717697
 30
0.0
 10
53.2488917317174
 20
186.369684674682
 30
0.0
 10
53.34345304103021
 20
183.7182402088059
 30
0.0
 10
53.54432925387418
 20
180.6957667015335
 30
0.0
 10
53.89131000341264
 20
177.3466188624451
 30
0.0
 10
54.36017612136931
 20
174.0568700157986
 30
0.0
 10
54.94053366024668
 20
170.8410149854444
 30
0.0
 10
55.61854089715601
 20
167.7232219829177
 30
0.0
 10
56.43203046833965
 20
164.5445450893293
 30
0.0
 10
57.23164938769764
 20
161.8721590645582
 30
0.0
 10
57.94584386230578
 20
159.7148882821369
 30
0.0
 10
58.50859659575175
 20
158.0918697430976
 30
0.0
 10
59.13786796708894
 20
156.4882758986718
 30
0.0
 10
59.87744712113285
 20
154.9403808366802
 30
0.0
 10
60.71569843037057
 20
153.4524516652295
 30
0.0
 10
61.63801239819979
 20
152.0453439167628
 30
0.0
 10
62.63219519674913
 20
150.7267658258715
 30
0.0
 10
63.80044486210556
 20
149.3725063308291
 30
0.0
 10
65.15214387563827
 20
148.0212879203573
 30
0.0
 10
66.68852315751064
 20
146.7158622340482
 30
0.0
 10
68.25532749520875
 20
145.5856458853334
 30
0.0
 10
69.82977355092422
 20
144.6218608466913
 30
0.0
 10
71.43242085100641
 20
143.7913932252067
 30
0.0
 10
73.01176407700505
 20
143.110566623073
 30
0.0
 10
74.59620240406103
 20
142.5539082630783
 30
0.0
 10
76.17686088650424
 20
142.1079810286564
 30
0.0
 10
77.85200890930777
 20
141.7717866698111
 30
0.0
 10
79.38774863062598
 20
141.5333022462364
 30
0.0
 10
80.76115920722656
 20
141.3167519569616
 30
0.0
 10
81.90556295919987
 20
141.1453233966972
 30
0.0
 10
82.96752136558584
 20
140.9915273718177
 30
0.0
 10
83.88591609738465
 20
140.8628541316528
 30
0.0
 10
84.58591926257832
 20
140.7673870740219
 30
0.0
 10
85.09604963820605
 20
140.6991906038369
 30
0.0
 10
85.44611019584214
 20
140.6530117307135
 30
0.0
 10
85.76755211777376
 20
140.6110788405085
 30
0.0
 10
86.12674909336774
 20
140.5647364815379
 30
0.0
 10
86.57592679037849
 20
140.5076270653838
 30
0.0
 10
87.38948442424754
 20
140.4061532562584
 30
0.0
 10
88.5757372544257
 20
140.2638426506356
 30
0.0
 10
90.24313834803178
 20
140.0762954066593
 30
0.0
 10
92.13842297193338
 20
139.8800524198886
 30
0.0
 10
94.21979046735315
 20
139.6859163799977
 30
0.0
 10
96.33551448357517
 20
139.5110737888315
 30
0.0
 10
98.43268200209603
 20
139.359963940435
 30
0.0
 10
100.4620531283115
 20
139.2347377025945
 30
0.0
 10
102.0308463118687
 20
139.1534686380594
 30
0.0
 10
103.1444997388661
 20
139.1030695534514
 30
0.0
 10
103.8413265490497
 20
139.0739448050222
 30
0.0
 10
104.579150075424
 20
139.0456035259643
 30
0.0
 10
105.4203128711383
 20
139.0164427278944
 30
0.0
 10
106.4527933590251
 20
138.9851580041272
 30
0.0
 10
107.1326139929245
 20
138.9690248164127
 30
0.0
 10
107.5697554031924
 20
138.9588201896614
 30
0.0
  0
ARC
  5
6D
330
5E
100
AcDbEntity
  8
MEGA_006646
  6
Continuous
 62
     7
100
AcDbCircle
 10
129.6656470357
 20
189.3149909493
 30
0.0
 40
76.38472220808151
100
AcDbArc
 50
174.9953024709
 51
176.9084193069
  0
SPLINE
  5
6E
330
5E
100
AcDbEntity
  8
MEGA_006646
  6
Continuous
 62
     7
100
AcDbSpline
210
0.0
220
0.0
230
1.0
 70
     8
 71
     3
 72
    55
 73
    51
 74
     0
 42
0.0000000001668308
 43
0.0000000001
 40
0.0
 40
0.0
 40
0.0
 40
0.0
 40
0.0315996898902563
 40
0.0617614357218757
 40
0.0907884380454065
 40
0.1189106571375464
 40
0.148049169130106
 40
0.1650722387442307
 40
0.1824377862262379
 40
0.1981737593160342
 40
0.2116432212200285
 40
0.2231236929643422
 40
0.2359377392837946
 40
0.2509078329224448
 40
0.2669724361389326
 40
0.2812263081899541
 40
0.2960343087558805
 40
0.3122780518151238
 40
0.3258063739039421
 40
0.3412142406919098
 40
0.3572101746889408
 40
0.3726829942899638
 40
0.3948393055559301
 40
0.4152303973975903
 40
0.4343674463609485
 40
0.4539975981999875
 40
0.474137162300197
 40
0.4946060508761341
 40
0.5148585002664543
 40
0.5347327626586948
 40
0.5541491583348684
 40
0.5731087178865444
 40
0.591584655726907
 40
0.6095482898271706
 40
0.6307985004505482
 40
0.6530013101918437
 40
0.6785553982143139
 40
0.7052018922339738
 40
0.7329104046913699
 40
0.7712229172647329
 40
0.8087406967778187
 40
0.8454683257515218
 40
0.8804783917707508
 40
0.8953753686115796
 40
0.909764081701629
 40
0.9236451507893815
 40
0.9377735829837659
 40
0.9550631937870678
 40
0.9758045361647718
 40
1.0
 40
1.0
 40
1.0
 40
1.0
 10
107.5697554031924
 20
163.9588201896614
 30
0.0
 10
106.875821536894
 20
163.9419058996383
 30
0.0
 10
105.7338541484309
 20
163.9132948921243
 30
0.0
 10
103.887040894473
 20
163.8461048595136
 30
0.0
 10
102.1540436823094
 20
163.767861243993
 30
0.0
 10
100.4310888661886
 20
163.6750321519325
 30
0.0
 10
98.9511194041132
 20
163.5823253319868
 30
0.0
 10
97.68547608815491
 20
163.4941163838722
 30
0.0
 10
96.68731823497761
 20
163.4192945736733
 30
0.0
 10
95.76026532865684
 20
163.3451048627716
 30
0.0
 10
94.95066372920468
 20
163.2766958052219
 30
0.0
 10
94.19945240582896
 20
163.2103303417871
 30
0.0
 10
93.41865299052581
 20
163.1384151148444
 30
0.0
 10
92.5470498053986
 20
163.0543208501308
 30
0.0
 10
91.64724978471826
 20
162.9632398600281
 30
0.0
 10
90.75109498989359
 20
162.8681843277132
 30
0.0
 10
89.85169576644539
 20
162.770670220804
 30
0.0
 10
88.96788405311321
 20
162.6607694368461
 30
0.0
 10
88.06572307941474
 20
162.6193701075851
 30
0.0
 10
87.1679492850066
 20
162.6446671013457
 30
0.0
 10
86.2360118564257
 20
162.7429295991718
 30
0.0
 10
85.18205278221029
 20
162.9380703925335
 30
0.0
 10
84.06565601138131
 20
163.2575609012621
 30
0.0
 10
82.9217968124572
 20
163.7201649330249
 30
0.0
 10
81.87402134828852
 20
164.2699006894769
 30
0.0
 10
80.88996764421478
 20
164.91796524136
 30
0.0
 10
79.95347806894974
 20
165.6760515835694
 30
0.0
 10
79.08781756345367
 20
166.5321705290317
 30
0.0
 10
78.31872817616501
 20
167.4692020631528
 30
0.0
 10
77.65992154999297
 20
168.4613667226196
 30
0.0
 10
77.11175914736081
 20
169.4893724766931
 30
0.0
 10
76.6753662753618
 20
170.539319198533
 30
0.0
 10
76.34870305162288
 20
171.5980729345023
 30
0.0
 10
76.11027624273034
 20
172.7263404180956
 30
0.0
 10
75.96771648780876
 20
173.9477572887974
 30
0.0
 10
75.98578266094589
 20
175.3274494556143
 30
0.0
 10
76.03033637407671
 20
176.8121005052754
 30
0.0
 10
76.08628986131903
 20
178.4070409763101
 30
0.0
 10
76.16811933528643
 20
180.2557530342061
 30
0.0
 10
76.27952144139184
 20
182.320449808079
 30
0.0
 10
76.4263159871487
 20
184.5634442682509
 30
0.0
 10
76.59303991715791
 20
186.7389036767644
 30
0.0
 10
76.74384715663882
 20
188.4624353363187
 30
0.0
 10
76.86535116265557
 20
189.7406193928681
 30
0.0
 10
76.95071304899054
 20
190.5984788508643
 30
0.0
 10
77.03810286766365
 20
191.4403987259647
 30
0.0
 10
77.13539349348584
 20
192.3407381070495
 30
0.0
 10
77.25167526898439
 20
193.3710659484166
 30
0.0
 10
77.40058556251017
 20
194.6281495419246
 30
0.0
 10
77.50500236503508
 20
195.4513602418658
 30
0.0
 10
77.57213783247957
 20
195.978596875468
 30
0.0
  0
ARC
  5
6F
330
5E
100
AcDbEntity
  8
MEGA_006646
  6
Continuous
 62
     7
100
AcDbCircle
 10
111.5689468271
 20
335.0918048563
 30
0.0
 40
196.173752592623
100
AcDbArc
 50
268.8318892764
 51
276.6061287265
  0
ARC
  5
70
330
5E
100
AcDbEntity
  8
MEGA_006646
  6
Continuous
 62
     7
100
AcDbCircle
 10
111.8038659912
 20
-33.814876463
 30
0.0
 40
197.8190152137103
100
AcDbArc
 50
85.3207917837
 51
91.2264503172
  0
ARC
  5
71
330
5E
100
AcDbEntity
  8
MEGA_006646
  6
Continuous
 62
     7
100
AcDbCircle
 10
129.5486906022
 20
175.8885216725
 30
0.0
 40
35.96193162565763
100
AcDbArc
 50
277.3309445859
 51
316.5399266512
  0
SPLINE
  5
72
330
5E
100
AcDbEntity
  8
MEGA_006646
  6
Continuous
 62
     7
100
AcDbSpline
210
0.0
220
0.0
230
1.0
 70
     8
 71
     3
 72
    30
 73
    26
 74
     0
 42
0.0000000004801601
 43
0.0000000001
 40
0.0
 40
0.0
 40
0.0
 40
0.0
 40
0.0386985852430735
 40
0.0693083951794882
 40
0.0929651752983016
 40
0.1131996258941401
 40
0.130397732641807
 40
0.1602558715745811
 40
0.1948875853241254
 40
0.2337748820816785
 40
0.2937312973582916
 40
0.3538704074371073
 40
0.413752203199216
 40
0.479493431142952
 40
0.5531463484634259
 40
0.6259045012133257
 40
0.6976611876062088
 40
0.7642299035425905
 40
0.7915881427720219
 40
0.8173734377066837
 40
0.8415825172312367
 40
0.8677204421575008
 40
0.9027515610828363
 40
0.9468540910683577
 40
1.0
 40
1.0
 40
1.0
 40
1.0
 10
148.261798053423
 20
163.9520009378094
 30
0.0
 10
148.0146580915356
 20
163.7902275463831
 30
0.0
 10
147.6416857982978
 20
163.5483619040754
 30
0.0
 10
147.0651701527011
 20
163.2329426381899
 30
0.0
 10
146.602768798846
 20
163.0063954366833
 30
0.0
 10
146.2147745447763
 20
162.8343603711432
 30
0.0
 10
145.7820322710911
 20
162.659123081439
 30
0.0
 10
145.2480120693564
 20
162.4681372943192
 30
0.0
 10
144.5597110801308
 20
162.2646957206641
 30
0.0
 10
143.6560585464798
 20
162.0586432819894
 30
0.0
 10
142.5613305804194
 20
161.9069479793295
 30
0.0
 10
141.310723755393
 20
161.8633627530027
 30
0.0
 10
140.0233688219039
 20
161.9637152668005
 30
0.0
 10
138.657713982151
 20
162.1825684683999
 30
0.0
 10
137.1974304706877
 20
162.3693811876938
 30
0.0
 10
135.6956631631867
 20
162.5601719594541
 30
0.0
 10
134.2409425613689
 20
162.7309868335679
 30
0.0
 10
133.0982117782608
 20
162.8572114224551
 30
0.0
 10
132.2721163580551
 20
162.9441833272803
 30
0.0
 10
131.7381358774408
 20
162.9989416341272
 30
0.0
 10
131.2126073720424
 20
163.0514541118643
 30
0.0
 10
130.6223770070237
 20
163.1088427213914
 30
0.0
 10
129.8983097089941
 20
163.1768100016416
 30
0.0
 10
128.9671705903331
 20
163.2602511586213
 30
0.0
 10
128.345604998813
 20
163.3115857309535
 30
0.0
 10
127.9413158280651
 20
163.3448189437789
 30
0.0
  0
ARC
  5
73
330
5E
100
AcDbEntity
  8
MEGA_006646
  6
Continuous
 62
     7
100
AcDbCircle
 10
129.4320872685
 20
175.8856992255
 30
0.0
 40
36.04472104241594
100
AcDbArc
 50
316.6706759069
 51
355.0742108362
  0
ARC
  5
74
330
5E
100
AcDbEntity
  8
MEGA_006646
  6
Continuous
 62
     7
100
AcDbCircle
 10
141.5265493078
 20
173.8845087312
 30
0.0
 40
12.00076192294122
100
AcDbArc
 50
304.1412558235
 51
358.4378413314
  0
LINE
  5
75
330
5E
100
AcDbEntity
  8
MEGA_006646
  6
Continuous
 62
     7
100
AcDbLine
 10
73.4242495653
 20
204.8241027133
 30
0.0
 11
73.2697554032
 21
204.9785968755
 31
0.0
  0
LINE
  5
76
330
5E
100
AcDbEntity
  8
MEGA_006646
  6
Continuous
 62
     7
100
AcDbLine
 10
57.8697554032
 20
204.9785968755
 30
0.0
 11
57.715261241
 21
204.8241027133
 31
0.0
  0
LINE
  5
77
330
5E
100
AcDbEntity
  8
MEGA_006646
  6
Continuous
 62
     7
100
AcDbLine
 10
165.3533344123
 20
172.7892114692
 30
0.0
 11
165.3648158069
 21
173.0603885008
 31
0.0
  0
LINE
  5
78
330
5E
100
AcDbEntity
  8
MEGA_006646
  6
Continuous
 62
     7
100
AcDbLine
 10
153.558569575
 20
173.9044196574
 30
0.0
 11
153.5278736315
 21
173.5494381932
 31
0.0
  0
ARC
  5
79
330
5E
100
AcDbEntity
  8
MEGA_006646
  6
Continuous
 62
     7
100
AcDbCircle
 10
162.7288690262
 20
173.0559967477
 30
0.0
 40
2.635950439278567
100
AcDbArc
 50
0.0954604559
 51
2.1004631244
  0
LINE
  5
7C
330
5E
100
AcDbEntity
  8
DV1_Standard
  6
HIDDEN2
 62
     7
100
AcDbLine
 10
61.5697554032
 20
204.9785968755
 30
0.0
 11
61.5697554032
 21
204.6785968755
 31
0.0
  0
LINE
  5
7D
330
5E
100
AcDbEntity
  8
DV1_Standard
  6
HIDDEN2
 62
     7
100
AcDbLine
 10
69.5697554032
 20
204.9785968755
 30
0.0
 11
69.5697554032
 21
204.6785968755
 31
0.0
  0
ENDBLK
  5
7F
330
5E
100
AcDbEntity
  8
0
100
AcDbBlockEnd
  0
BLOCK
  5
82
330
81
100
AcDbEntity
  8
0
100
AcDbBlockBegin
  2
_OBLIQUE
 70
     0
 10
0.0
 20
0.0
 30
0.0
  3
_OBLIQUE
  1

  0
LINE
  5
84
330
81
100
AcDbEntity
  8
0
  6
ByBlock
 62
     0
370
    -2
100
AcDbLine
 10
-0.5
 20
-0.5
 30
0.0
 11
0.5
 21
0.5
 31
0.0
  0
ENDBLK
  5
83
330
81
100
AcDbEntity
  8
0
100
AcDbBlockEnd
  0
BLOCK
  5
86
330
85
100
AcDbEntity
  8
0
100
AcDbBlockBegin
  2
_DOT
 70
     0
 10
0.0
 20
0.0
 30
0.0
  3
_DOT
  1

  0
POLYLINE
  5
88
330
85
100
AcDbEntity
  8
0
  6
ByBlock
 62
     0
100
AcDb2dPolyline
 66
     1
 10
0.0
 20
0.0
 30
0.0
 70
     1
 40
0.5
 41
0.5
  0
VERTEX
  5
8B
330
88
100
AcDbEntity
  8
0
  6
ByBlock
 62
     0
100
AcDbVertex
100
AcDb2dVertex
 10
-0.25
 20
0.0
 30
0.0
 42
1.0
  0
VERTEX
  5
8C
330
88
100
AcDbEntity
  8
0
  6
ByBlock
 62
     0
100
AcDbVertex
100
AcDb2dVertex
 10
0.25
 20
0.0
 30
0.0
 42
1.0
  0
SEQEND
  5
8A
330
88
100
AcDbEntity
  8
0
  6
ByBlock
 62
     0
  0
LINE
  5
89
330
85
100
AcDbEntity
  8
0
  6
ByBlock
 62
     0
370
    -2
100
AcDbLine
 10
-0.5
 20
0.0
 30
0.0
 11
-1.0
 21
0.0
 31
0.0
  0
ENDBLK
  5
87
330
85
100
AcDbEntity
  8
0
100
AcDbBlockEnd
  0
BLOCK
  5
90
330
8D
100
AcDbEntity
  8
0
100
AcDbBlockBegin
  2
_SE_FILLED
 70
     0
 10
0.0
 20
0.0
 30
0.0
  3
_SE_FILLED
  1

  0
SOLID
  5
8E
330
8D
100
AcDbEntity
  8
0
 62
     0
100
AcDbTrace
 10
0.0
 20
0.0
 30
0.0
 11
-1.0
 21
-0.1665
 31
0.0
 12
-1.0
 22
0.1665
 32
0.0
 13
0.0
 23
0.0
 33
0.0
  0
LINE
  5
8F
330
8D
100
AcDbEntity
  8
0
 62
     0
100
AcDbLine
 10
0.0
 20
0.0
 30
0.0
 11
-1.0
 21
0.0
 31
0.0
  0
ENDBLK
  5
91
330
8D
100
AcDbEntity
  8
0
100
AcDbBlockEnd
  0
BLOCK
  5
9E
330
96
100
AcDbEntity
  8
0
100
AcDbBlockBegin
  2
DMBLK27
 70
     0
 10
0.0
 20
0.0
 30
0.0
  3
DMBLK27
  1

  0
HATCH
  5
97
330
96
100
AcDbEntity
  8
Default
  6
Continuous
 62
     7
100
AcDbHatch
 10
0.0
 20
0.0
 30
0.0
210
0.0
220
0.0
230
1.0
  2
SOLID
 70
     1
 71
     0
 91
        1
 92
        1
 93
        3
 72
     1
 10
56.57213785855671
 20
235.2475551801663
 11
53.57213783247968
 21
234.7475551758201
 72
     1
 10
53.57213783247968
 20
234.7475551758201
 11
56.57213785855671
 21
234.2475551714739
 72
     1
 10
56.57213785855671
 20
234.2475551714739
 11
56.57213785855671
 21
235.2475551801663
 97
        0
 75
     0
 76
     1
 98
        0
  0
HATCH
  5
98
330
96
100
AcDbEntity
  8
Default
  6
Continuous
 62
     7
100
AcDbHatch
 10
0.0
 20
0.0
 30
0.0
210
0.0
220
0.0
230
1.0
  2
SOLID
 70
     1
 71
     0
 91
        1
 92
        1
 93
        3
 72
     1
 10
74.5721380150189
 20
235.2475551801663
 11
74.5721380150189
 21
234.2475551714739
 72
     1
 10
74.5721380150189
 20
234.2475551714739
 11
77.57213804109593
 21
234.7475551758201
 72
     1
 10
77.57213804109593
 20
234.7475551758201
 11
74.5721380150189
 21
235.2475551801663
 97
        0
 75
     0
 76
     1
 98
        0
  0
LINE
  5
99
330
96
100
AcDbEntity
  8
Default
  6
Continuous
 62
     7
100
AcDbLine
 10
53.5721378325
 20
195.9785968755
 30
0.0
 11
53.5721378325
 21
236.2475551889
 31
0.0
  0
LINE
  5
9A
330
96
100
AcDbEntity
  8
Default
  6
Continuous
 62
     7
100
AcDbLine
 10
77.5721378325
 20
195.9785968755
 30
0.0
 11
77.5721378325
 21
236.2475551889
 31
0.0
  0
LINE
  5
9B
330
96
100
AcDbEntity
  8
Default
  6
Continuous
 62
     7
100
AcDbLine
 10
53.5721378325
 20
234.7475551758
 30
0.0
 11
77.5721380411
 21
234.7475551758
 31
0.0
  0
TEXT
  5
9C
330
96
100
AcDbEntity
  8
Default
  6
Continuous
 62
     7
100
AcDbText
 10
65.5856254318
 20
235.4975551758
 30
0.0
 40
3.0
  1
24
  7
SEACAD_seiso_ttf
 11
65.5856254318
 21
238.4975551758
 31
0.0
100
AcDbText
 73
     3
  0
TEXT
  5
9D
330
96
100
AcDbEntity
  8
Default
  6
Continuous
 62
     7
100
AcDbText
 10
61.9450140781
 20
235.4975551758
 30
0.0
 40
3.0
  1
O
  7
SEACAD_semeci1_ttf
 11
61.9450140781
 21
238.4975551758
 31
0.0
100
AcDbText
 73
     3
  0
ENDBLK
  5
9F
330
96
100
AcDbEntity
  8
0
100
AcDbBlockEnd
  0
BLOCK
  5
A9
330
A1
100
AcDbEntity
  8
0
100
AcDbBlockBegin
  2
DMBLK28
 70
     0
 10
0.0
 20
0.0
 30
0.0
  3
DMBLK28
  1

  0
HATCH
  5
A2
330
A1
100
AcDbEntity
  8
Default
  6
Continuous
 62
     7
100
AcDbHatch
 10
0.0
 20
0.0
 30
0.0
210
0.0
220
0.0
230
1.0
  2
SOLID
 70
     1
 71
     0
 91
        1
 92
        1
 93
        3
 72
     1
 10
60.66912254322791
 20
226.1801239657145
 11
57.66912251715088
 21
225.6801239613683
 72
     1
 10
57.66912251715088
 20
225.6801239613683
 11
60.66912254322791
 21
225.1801239570222
 72
     1
 10
60.66912254322791
 20
225.1801239570222
 11
60.66912254322791
 21
226.1801239657145
 97
        0
 75
     0
 76
     1
 98
        0
  0
HATCH
  5
A3
330
A1
100
AcDbEntity
  8
Default
  6
Continuous
 62
     7
100
AcDbHatch
 10
0.0
 20
0.0
 30
0.0
210
0.0
220
0.0
230
1.0
  2
SOLID
 70
     1
 71
     0
 91
        1
 92
        1
 93
        3
 72
     1
 10
70.47038832683587
 20
226.1801239657145
 11
70.47038832683587
 21
225.1801239570222
 72
     1
 10
70.47038832683587
 20
225.1801239570222
 11
73.4703883529129
 21
225.6801239613683
 72
     1
 10
73.4703883529129
 20
225.6801239613683
 11
70.47038832683587
 21
226.1801239657145
 97
        0
 75
     0
 76
     1
 98
        0
  0
LINE
  5
A4
330
A1
100
AcDbEntity
  8
Default
  6
Continuous
 62
     7
100
AcDbLine
 10
57.6691225172
 20
204.6785968755
 30
0.0
 11
57.6691225172
 21
227.1801239744
 31
0.0
  0
LINE
  5
A5
330
A1
100
AcDbEntity
  8
Default
  6
Continuous
 62
     7
100
AcDbLine
 10
73.4703882892
 20
204.6785968755
 30
0.0
 11
73.4703882892
 21
227.1801239744
 31
0.0
  0
LINE
  5
A6
330
A1
100
AcDbEntity
  8
Default
  6
Continuous
 62
     7
100
AcDbLine
 10
57.6691225172
 20
225.6801239614
 30
0.0
 11
73.4703883529
 21
225.6801239614
 31
0.0
  0
TEXT
  5
A7
330
A1
100
AcDbEntity
  8
Default
  6
Continuous
 62
     7
100
AcDbText
 10
65.8559702028
 20
226.4301239614
 30
0.0
 40
3.0
  1
16
  7
SEACAD_seiso_ttf
 11
65.8559702028
 21
229.4301239614
 31
0.0
100
AcDbText
 73
     3
  0
TEXT
  5
A8
330
A1
100
AcDbEntity
  8
Default
  6
Continuous
 62
     7
100
AcDbText
 10
62.2153588491
 20
226.4301239614
 30
0.0
 40
3.0
  1
O
  7
SEACAD_semeci1_ttf
 11
62.2153588491
 21
229.4301239614
 31
0.0
100
AcDbText
 73
     3
  0
ENDBLK
  5
AA
330
A1
100
AcDbEntity
  8
0
100
AcDbBlockEnd
  0
BLOCK
  5
B4
330
AC
100
AcDbEntity
  8
0
100
AcDbBlockBegin
  2
DMBLK29
 70
     0
 10
0.0
 20
0.0
 30
0.0
  3
DMBLK29
  1

  0
HATCH
  5
AD
330
AC
100
AcDbEntity
  8
Default
  6
Continuous
 62
     7
100
AcDbHatch
 10
0.0
 20
0.0
 30
0.0
210
0.0
220
0.0
230
1.0
  2
SOLID
 70
     1
 71
     0
 91
        1
 92
        1
 93
        3
 72
     1
 10
58.56975537711531
 20
215.4657723444443
 11
58.56975537711531
 21
214.465772335752
 72
     1
 10
58.56975537711531
 20
214.465772335752
 11
61.56975540319235
 21
214.9657723400981
 72
     1
 10
61.56975540319235
 20
214.9657723400981
 11
58.56975537711531
 21
215.4657723444443
 97
        0
 75
     0
 76
     1
 98
        0
  0
HATCH
  5
AE
330
AC
100
AcDbEntity
  8
Default
  6
Continuous
 62
     7
100
AcDbHatch
 10
0.0
 20
0.0
 30
0.0
210
0.0
220
0.0
230
1.0
  2
SOLID
 70
     1
 71
     0
 91
        1
 92
        1
 93
        3
 72
     1
 10
72.56975542926938
 20
215.4657723444443
 11
69.56975540319235
 21
214.9657723400981
 72
     1
 10
69.56975540319235
 20
214.9657723400981
 11
72.56975542926938
 21
214.465772335752
 72
     1
 10
72.56975542926938
 20
214.465772335752
 11
72.56975542926938
 21
215.4657723444443
 97
        0
 75
     0
 76
     1
 98
        0
  0
LINE
  5
AF
330
AC
100
AcDbEntity
  8
Default
  6
Continuous
 62
     7
100
AcDbLine
 10
61.5697554032
 20
204.9785968755
 30
0.0
 11
61.5697554032
 21
216.4657723531
 31
0.0
  0
LINE
  5
B0
330
AC
100
AcDbEntity
  8
Default
  6
Continuous
 62
     7
100
AcDbLine
 10
69.5697554032
 20
204.9785968755
 30
0.0
 11
69.5697554032
 21
216.4657723531
 31
0.0
  0
LINE
  5
B1
330
AC
100
AcDbEntity
  8
Default
  6
Continuous
 62
     7
100
AcDbLine
 10
55.569755351
 20
214.9657723401
 30
0.0
 11
75.5697558353
 21
214.9657723401
 31
0.0
  0
TEXT
  5
B2
330
AC
100
AcDbEntity
  8
Default
  6
Continuous
 62
     7
100
AcDbText
 10
66.4682669072
 20
215.7157723401
 30
0.0
 40
3.0
  1
8
  7
SEACAD_seiso_ttf
 11
66.4682669072
 21
218.7157723401
 31
0.0
100
AcDbText
 73
     3
  0
TEXT
  5
B3
330
AC
100
AcDbEntity
  8
Default
  6
Continuous
 62
     7
100
AcDbText
 10
62.7621533701
 20
215.7157723401
 30
0.0
 40
3.0
  1
q
  7
SEACAD_semeci1_ttf
 11
62.7621533701
 21
218.7157723401
 31
0.0
100
AcDbText
 73
     3
  0
ENDBLK
  5
B5
330
AC
100
AcDbEntity
  8
0
100
AcDbBlockEnd
  0
BLOCK
  5
BE
330
B7
100
AcDbEntity
  8
0
100
AcDbBlockBegin
  2
DMBLK30
 70
     0
 10
0.0
 20
0.0
 30
0.0
  3
DMBLK30
  1

  0
HATCH
  5
B8
330
B7
100
AcDbEntity
  8
Default
  6
Continuous
 62
     7
100
AcDbHatch
 10
0.0
 20
0.0
 30
0.0
210
0.0
220
0.0
230
1.0
  2
SOLID
 70
     1
 71
     0
 91
        1
 92
        1
 93
        3
 72
     1
 10
39.55362541041418
 20
201.978596849391
 11
40.55362541910652
 21
201.978596849391
 72
     1
 10
40.55362541910652
 20
201.978596849391
 11
40.05362541476035
 21
204.978596875468
 72
     1
 10
40.05362541476035
 20
204.978596875468
 11
39.55362541041418
 21
201.978596849391
 97
        0
 75
     0
 76
     1
 98
        0
  0
HATCH
  5
B9
330
B7
100
AcDbEntity
  8
Default
  6
Continuous
 62
     7
100
AcDbHatch
 10
0.0
 20
0.0
 30
0.0
210
0.0
220
0.0
230
1.0
  2
SOLID
 70
     1
 71
     0
 91
        1
 92
        1
 93
        3
 72
     1
 10
39.55362541041418
 20
198.9785972889752
 11
40.05362541476035
 21
195.9785972628982
 72
     1
 10
40.05362541476035
 20
195.9785972628982
 11
40.55362541910652
 21
198.9785972889752
 72
     1
 10
40.55362541910652
 20
198.9785972889752
 11
39.55362541041418
 21
198.9785972889752
 97
        0
 75
     0
 76
     1
 98
        0
  0
LINE
  5
BA
330
B7
100
AcDbEntity
  8
Default
  6
Continuous
 62
     7
100
AcDbLine
 10
73.2697554032
 20
204.9785968755
 30
0.0
 11
38.5536254017
 21
204.9785968755
 31
0.0
  0
LINE
  5
BB
330
B7
100
AcDbEntity
  8
Default
  6
Continuous
 62
     7
100
AcDbLine
 10
65.5721378325
 20
195.9785968755
 30
0.0
 11
38.5536254017
 21
195.9785968755
 31
0.0
  0
LINE
  5
BC
330
B7
100
AcDbEntity
  8
Default
  6
Continuous
 62
     7
100
AcDbLine
 10
40.0536254148
 20
204.9785968755
 30
0.0
 11
40.0536254148
 21
195.9785972629
 31
0.0
  0
TEXT
  5
BD
330
B7
100
AcDbEntity
  8
Default
  6
Continuous
 62
     7
100
AcDbText
 10
39.3036254148
 20
199.5581425237
 30
0.0
 40
3.0
  1
9
 50
90.0
  7
SEACAD_seiso_ttf
 11
36.3036254148
 21
199.5581425237
 31
0.0
100
AcDbText
 73
     3
  0
ENDBLK
  5
BF
330
B7
100
AcDbEntity
  8
0
100
AcDbBlockEnd
  0
BLOCK
  5
C8
330
C1
100
AcDbEntity
  8
0
100
AcDbBlockBegin
  2
DMBLK31
 70
     0
 10
0.0
 20
0.0
 30
0.0
  3
DMBLK31
  1

  0
HATCH
  5
C2
330
C1
100
AcDbEntity
  8
Default
  6
Continuous
 62
     7
100
AcDbHatch
 10
0.0
 20
0.0
 30
0.0
210
0.0
220
0.0
230
1.0
  2
SOLID
 70
     1
 71
     0
 91
        1
 92
        1
 93
        3
 72
     1
 10
39.55362547483234
 20
192.978596849391
 11
40.55362548352468
 21
192.978596849391
 72
     1
 10
40.55362548352468
 20
192.978596849391
 11
40.05362547917851
 21
195.978596875468
 72
     1
 10
40.05362547917851
 20
195.978596875468
 11
39.55362547483234
 21
192.978596849391
 97
        0
 75
     0
 76
     1
 98
        0
  0
HATCH
  5
C3
330
C1
100
AcDbEntity
  8
Default
  6
Continuous
 62
     7
100
AcDbHatch
 10
0.0
 20
0.0
 30
0.0
210
0.0
220
0.0
230
1.0
  2
SOLID
 70
     1
 71
     0
 91
        1
 92
        1
 93
        3
 72
     1
 10
39.55362547483234
 20
141.9180534538121
 11
40.05362547917851
 21
138.9180534277351
 72
     1
 10
40.05362547917851
 20
138.9180534277351
 11
40.55362548352468
 21
141.9180534538121
 72
     1
 10
40.55362548352468
 20
141.9180534538121
 11
39.55362547483234
 21
141.9180534538121
 97
        0
 75
     0
 76
     1
 98
        0
  0
LINE
  5
C4
330
C1
100
AcDbEntity
  8
Default
  6
Continuous
 62
     7
100
AcDbLine
 10
65.5721378325
 20
195.9785968755
 30
0.0
 11
38.5536254661
 21
195.9785968755
 31
0.0
  0
LINE
  5
C5
330
C1
100
AcDbEntity
  8
Default
  6
Continuous
 62
     7
100
AcDbLine
 10
111.5689468271
 20
138.9180522636
 30
0.0
 11
38.5536254661
 21
138.9180522636
 31
0.0
  0
LINE
  5
C6
330
C1
100
AcDbEntity
  8
Default
  6
Continuous
 62
     7
100
AcDbLine
 10
40.0536254792
 20
195.9785968755
 30
0.0
 11
40.0536254792
 21
138.9180534277
 31
0.0
  0
TEXT
  5
C7
330
C1
100
AcDbEntity
  8
Default
  6
Continuous
 62
     7
100
AcDbText
 10
39.3036254792
 20
163.5619615152
 30
0.0
 40
3.0
  1
57,06
 50
90.0
  7
SEACAD_seiso_ttf
 11
36.3036254792
 21
163.5619615152
 31
0.0
100
AcDbText
 73
     3
  0
ENDBLK
  5
C9
330
C1
100
AcDbEntity
  8
0
100
AcDbBlockEnd
  0
BLOCK
  5
D2
330
CB
100
AcDbEntity
  8
0
100
AcDbBlockBegin
  2
DMBLK32
 70
     0
 10
0.0
 20
0.0
 30
0.0
  3
DMBLK32
  1

  0
HATCH
  5
CC
330
CB
100
AcDbEntity
  8
Default
  6
Continuous
 62
     7
100
AcDbHatch
 10
0.0
 20
0.0
 30
0.0
210
0.0
220
0.0
230
1.0
  2
SOLID
 70
     1
 71
     0
 91
        1
 92
        1
 93
        3
 72
     1
 10
182.0721508791408
 20
141.9180522897097
 11
181.0721508704484
 21
141.9180522897097
 72
     1
 10
181.0721508704484
 20
141.9180522897097
 11
181.5721508747946
 21
138.9180522636327
 72
     1
 10
181.5721508747946
 20
138.9180522636327
 11
182.0721508791408
 21
141.9180522897097
 97
        0
 75
     0
 76
     1
 98
        0
  0
HATCH
  5
CD
330
CB
100
AcDbEntity
  8
Default
  6
Continuous
 62
     7
100
AcDbHatch
 10
0.0
 20
0.0
 30
0.0
210
0.0
220
0.0
230
1.0
  2
SOLID
 70
     1
 71
     0
 91
        1
 92
        1
 93
        3
 72
     1
 10
182.0721508791408
 20
175.97751442723
 11
181.5721508747946
 21
178.9775144533071
 72
     1
 10
181.5721508747946
 20
178.9775144533071
 11
181.0721508704484
 21
175.97751442723
 72
     1
 10
181.0721508704484
 20
175.97751442723
 11
182.0721508791408
 21
175.97751442723
 97
        0
 75
     0
 76
     1
 98
        0
  0
LINE
  5
CE
330
CB
100
AcDbEntity
  8
Default
  6
Continuous
 62
     7
100
AcDbLine
 10
111.5689468271
 20
138.9180522636
 30
0.0
 11
183.0721508878
 21
138.9180522636
 31
0.0
  0
LINE
  5
CF
330
CB
100
AcDbEntity
  8
Default
  6
Continuous
 62
     7
100
AcDbLine
 10
159.4302757947
 20
178.9775151498
 30
0.0
 11
183.0721508878
 21
178.9775151498
 31
0.0
  0
LINE
  5
D0
330
CB
100
AcDbEntity
  8
Default
  6
Continuous
 62
     7
100
AcDbLine
 10
181.5721508748
 20
138.9180522636
 30
0.0
 11
181.5721508748
 21
178.9775144533
 31
0.0
  0
TEXT
  5
D1
330
CB
100
AcDbEntity
  8
Default
  6
Continuous
 62
     7
100
AcDbText
 10
180.8221508748
 20
155.0955106312
 30
0.0
 40
3.0
  1
40,06
 50
90.0
  7
SEACAD_seiso_ttf
 11
177.8221508748
 21
155.0955106312
 31
0.0
100
AcDbText
 73
     3
  0
ENDBLK
  5
D3
330
CB
100
AcDbEntity
  8
0
100
AcDbBlockEnd
  0
BLOCK
  5
DC
330
D5
100
AcDbEntity
  8
0
100
AcDbBlockBegin
  2
DMBLK33
 70
     0
 10
0.0
 20
0.0
 30
0.0
  3
DMBLK33
  1

  0
HATCH
  5
D6
330
D5
100
AcDbEntity
  8
Default
  6
Continuous
 62
     7
100
AcDbHatch
 10
0.0
 20
0.0
 30
0.0
210
0.0
220
0.0
230
1.0
  2
SOLID
 70
     1
 71
     0
 91
        1
 92
        1
 93
        3
 72
     1
 10
56.24719495319493
 20
124.9370929723302
 11
56.24719495319493
 21
125.9370929810226
 72
     1
 10
56.24719495319493
 20
125.9370929810226
 11
53.2471949271179
 21
125.4370929766764
 72
     1
 10
53.2471949271179
 20
125.4370929766764
 11
56.24719495319493
 21
124.9370929723302
 97
        0
 75
     0
 76
     1
 98
        0
  0
HATCH
  5
D7
330
D5
100
AcDbEntity
  8
Default
  6
Continuous
 62
     7
100
AcDbHatch
 10
0.0
 20
0.0
 30
0.0
210
0.0
220
0.0
230
1.0
  2
SOLID
 70
     1
 71
     0
 91
        1
 92
        1
 93
        3
 72
     1
 10
162.3648132234133
 20
124.9370929723302
 11
165.3648132494903
 21
125.4370929766764
 72
     1
 10
165.3648132494903
 20
125.4370929766764
 11
162.3648132234133
 21
125.9370929810226
 72
     1
 10
162.3648132234133
 20
125.9370929810226
 11
162.3648132234133
 21
124.9370929723302
 97
        0
 75
     0
 76
     1
 98
        0
  0
LINE
  5
D8
330
D5
100
AcDbEntity
  8
Default
  6
Continuous
 62
     7
100
AcDbLine
 10
53.2471949271
 20
188.5284083058
 30
0.0
 11
53.2471949271
 21
123.9370929636
 31
0.0
  0
LINE
  5
D9
330
D5
100
AcDbEntity
  8
Default
  6
Continuous
 62
     7
100
AcDbLine
 10
165.3648151449
 20
173.0604964259
 30
0.0
 11
165.3648151449
 21
123.9370929636
 31
0.0
  0
LINE
  5
DA
330
D5
100
AcDbEntity
  8
Default
  6
Continuous
 62
     7
100
AcDbLine
 10
53.2471949271
 20
125.4370929767
 30
0.0
 11
165.3648132495
 21
125.4370929767
 31
0.0
  0
TEXT
  5
DB
330
D5
100
AcDbEntity
  8
Default
  6
Continuous
 62
     7
100
AcDbText
 10
106.8855495428
 20
126.1870929767
 30
0.0
 40
3.0
  1
124
  7
SEACAD_seiso_ttf
 11
106.8855495428
 21
129.1870929767
 31
0.0
100
AcDbText
 73
     3
  0
ENDBLK
  5
DD
330
D5
100
AcDbEntity
  8
0
100
AcDbBlockEnd
  0
ENDSEC
  0
SECTION
  2
ENTITIES
  0
INSERT
  5
5F
330
1F
100
AcDbEntity
  8
Default
100
AcDbBlockReference
  2
SE
 10
0.0
 20
0.0
 30
0.0
  0
DIMENSION
  5
94
330
1F
100
AcDbEntity
  8
Default
  6
Continuous
 62
     7
100
AcDbDimension
  2
DMBLK27
 10
53.5721378325
 20
234.7475551758
 30
0.0
 11
65.5721379368
 21
234.7475551758
 31
0.0
 70
   161
  1
\A1;%%C <>
 71
     5
 42
-1.0
  3
DIN
100
AcDbAlignedDimension
 13
53.5721378325
 23
195.9785968755
 33
0.0
 14
77.5721378325
 24
195.9785968755
 34
0.0
  0
DIMENSION
  5
A0
330
1F
100
AcDbEntity
  8
Default
  6
Continuous
 62
     7
100
AcDbDimension
  2
DMBLK28
 10
57.6691225172
 20
225.6801239614
 30
0.0
 11
65.569755435
 21
225.6801239614
 31
0.0
 70
   161
  1
\A1;%%C <>
 71
     5
 42
-1.0
  3
DIN
100
AcDbAlignedDimension
 13
57.6691225172
 23
204.6785968755
 33
0.0
 14
73.4703882892
 24
204.6785968755
 34
0.0
  0
DIMENSION
  5
AB
330
1F
100
AcDbEntity
  8
Default
  6
Continuous
 62
     7
100
AcDbDimension
  2
DMBLK29
 10
61.5697554032
 20
214.9657723401
 30
0.0
 11
65.5697555932
 21
214.9657723401
 31
0.0
 70
   161
  1
\A1;{\Fsemeca1.ttf;q} <>
 71
     5
 42
-1.0
  3
DIN
100
AcDbAlignedDimension
 13
61.5697554032
 23
204.9785968755
 33
0.0
 14
69.5697554032
 24
204.9785968755
 34
0.0
1001
ACAD
1000
DSTYLE
1002
{
1070
   271
1070
     2
1070
   272
1070
     2
1070
     0
1002
}
  0
DIMENSION
  5
B6
330
1F
100
AcDbEntity
  8
Default
  6
Continuous
 62
     7
100
AcDbDimension
  2
DMBLK30
 10
40.0536254148
 20
195.9785968755
 30
0.0
 11
40.0536254148
 21
200.4785970692
 31
0.0
 70
   160
  1
\A1;<>
 71
     5
 42
-1.0
  3
DIN
100
AcDbAlignedDimension
 13
73.2697554032
 23
204.9785968755
 33
0.0
 14
65.5721378325
 24
195.9785968755
 34
0.0
 50
90.0
100
AcDbRotatedDimension
1001
ACAD
1000
DSTYLE
1002
{
1070
   271
1070
     2
1070
   272
1070
     2
1070
     0
1002
}
  0
DIMENSION
  5
C0
330
1F
100
AcDbEntity
  8
Default
  6
Continuous
 62
     7
100
AcDbDimension
  2
DMBLK31
 10
40.0536254792
 20
138.9180522636
 30
0.0
 11
40.0536254792
 21
167.4483251516
 31
0.0
 70
   160
  1
\A1;<>
 71
     5
 42
-1.0
  3
DIN
100
AcDbAlignedDimension
 13
65.5721378325
 23
195.9785968755
 33
0.0
 14
111.5689468271
 24
138.9180522636
 34
0.0
 50
90.0
100
AcDbRotatedDimension
1001
ACAD
1000
DSTYLE
1002
{
1070
   271
1070
     2
1070
   272
1070
     2
1070
     0
1002
}
  0
DIMENSION
  5
CA
330
1F
100
AcDbEntity
  8
Default
  6
Continuous
 62
     7
100
AcDbDimension
  2
DMBLK32
 10
181.5721508748
 20
178.9775151498
 30
0.0
 11
181.5721508748
 21
158.9477833585
 31
0.0
 70
   160
  1
\A1;<>
 71
     5
 42
-1.0
  3
DIN
100
AcDbAlignedDimension
 13
111.5689468271
 23
138.9180522636
 33
0.0
 14
159.4302757947
 24
178.9775151498
 34
0.0
 50
90.0
100
AcDbRotatedDimension
1001
ACAD
1000
DSTYLE
1002
{
1070
   271
1070
     2
1070
   272
1070
     2
1070
     0
1002
}
  0
DIMENSION
  5
D4
330
1F
100
AcDbEntity
  8
Default
  6
Continuous
 62
     7
100
AcDbDimension
  2
DMBLK33
 10
165.3648151449
 20
125.4370929767
 30
0.0
 11
109.3060040883
 21
125.4370929767
 31
0.0
 70
   160
  1
\A1;\L124.000
 71
     5
 42
-1.0
  3
DIN
100
AcDbAlignedDimension
 13
53.2471949271
 23
188.5284083058
 33
0.0
 14
165.3648151449
 24
173.0604964259
 34
0.0
100
AcDbRotatedDimension
1001
ACAD
1000
DSTYLE
1002
{
1070
   271
1070
     2
1070
   272
1070
     2
1070
     0
1002
}
  0
ENDSEC
  0
SECTION
  2
OBJECTS
  0
DICTIONARY
  5
C
330
0
100
AcDbDictionary
281
     1
  3
ACAD_GROUP
350
D
  3
ACAD_LAYOUT
350
1A
  3
ACAD_MLEADERSTYLE
350
E1
  3
ACAD_MLINESTYLE
350
17
  3
ACAD_PLOTSETTINGS
350
19
  3
ACAD_PLOTSTYLENAME
350
E
  3
ACAD_SCALELIST
350
3B
  3
ACAD_TABLESTYLE
350
E0
  3
ACAD_VISUALSTYLE
350
2A
  3
AcDbVariableDictionary
350
DE
  0
DICTIONARY
  5
D
102
{ACAD_REACTORS
330
C
102
}
330
C
100
AcDbDictionary
281
     1
  0
DICTIONARY
  5
1A
102
{ACAD_REACTORS
330
C
102
}
330
C
100
AcDbDictionary
281
     1
  3
Layout1
350
1E
  3
Model
350
22
  0
DICTIONARY
  5
E1
102
{ACAD_REACTORS
330
C
102
}
330
C
100
AcDbDictionary
281
     1
  0
DICTIONARY
  5
17
102
{ACAD_REACTORS
330
C
102
}
330
C
100
AcDbDictionary
281
     1
  3
Standard
350
18
  0
DICTIONARY
  5
19
102
{ACAD_REACTORS
330
C
102
}
330
C
100
AcDbDictionary
281
     1
  0
ACDBDICTIONARYWDFLT
  5
E
102
{ACAD_REACTORS
330
C
102
}
330
C
100
AcDbDictionary
281
     1
  3
Normal
350
F
100
AcDbDictionaryWithDefault
340
F
  0
DICTIONARY
  5
3B
102
{ACAD_REACTORS
330
C
102
}
330
C
100
AcDbDictionary
281
     1
  3
A0
350
3C
  3
A1
350
3D
  3
A2
350
3E
  3
A3
350
3F
  3
A4
350
40
  3
A5
350
41
  3
A6
350
42
  3
A7
350
43
  3
A8
350
44
  3
A9
350
45
  3
B0
350
46
  3
B1
350
47
  3
B2
350
48
  3
B3
350
49
  3
B4
350
4A
  3
B5
350
4B
  3
B6
350
4C
  3
B7
350
4D
  3
B8
350
4E
  3
B9
350
4F
  3
C0
350
50
  3
C1
350
51
  3
C2
350
52
  3
C3
350
53
  3
C4
350
54
  3
C5
350
55
  3
C6
350
56
  3
C7
350
57
  3
C8
350
58
  3
C9
350
59
  3
D0
350
5A
  3
D1
350
5B
  3
D2
350
5C
  0
DICTIONARY
  5
E0
102
{ACAD_REACTORS
330
C
102
}
330
C
100
AcDbDictionary
281
     1
  0
DICTIONARY
  5
2A
102
{ACAD_REACTORS
330
C
102
}
330
C
100
AcDbDictionary
281
     1
  3
2dWireframe
350
2F
  3
3D Hidden
350
31
  3
3dWireframe
350
30
  3
Basic
350
32
  3
Brighten
350
36
  3
ColorChange
350
3A
  3
Conceptual
350
34
  3
Dim
350
35
  3
Facepattern
350
39
  3
Flat
350
2B
  3
FlatWithEdges
350
2C
  3
Gouraud
350
2D
  3
GouraudWithEdges
350
2E
  3
Linepattern
350
38
  3
Realistic
350
33
  3
Thicken
350
37
  0
DICTIONARY
  5
DE
102
{ACAD_REACTORS
330
C
102
}
330
C
100
AcDbDictionary
281
     1
  3
CANNOSCALE
350
DF
  3
PSOLHEIGHT
350
E3
  3
PSOLWIDTH
350
E2
  0
LAYOUT
  5
1E
102
{ACAD_REACTORS
330
1A
102
}
330
1A
100
AcDbPlotSettings
  1

  2
none_device
  4

  6

 40
0.0
 41
0.0
 42
0.0
 43
0.0
 44
0.0
 45
0.0
 46
0.0
 47
0.0
 48
0.0
 49
0.0
140
0.0
141
0.0
142
1.0
143
1.0
 70
   688
 72
     0
 73
     0
 74
     5
  7

 75
    16
147
1.0
148
0.0
149
0.0
100
AcDbLayout
  1
Layout1
 70
     1
 71
     1
 10
0.0
 20
0.0
 11
210.0
 21
297.0
 12
0.0
 22
0.0
 32
0.0
 14
0.0
 24
0.0
 34
0.0
 15
210.0
 25
297.0
 35
0.0
146
0.0
 13
0.0
 23
0.0
 33
0.0
 16
1.0
 26
0.0
 36
0.0
 17
0.0
 27
1.0
 37
0.0
 76
     0
330
1B
  0
LAYOUT
  5
22
102
{ACAD_REACTORS
330
1A
102
}
330
1A
100
AcDbPlotSettings
  1

  2
none_device
  4

  6

 40
0.0
 41
0.0
 42
0.0
 43
0.0
 44
0.0
 45
0.0
 46
0.0
 47
0.0
 48
0.0
 49
0.0
140
0.0
141
0.0
142
1.0
143
1.0
 70
  1712
 72
     0
 73
     0
 74
     0
  7

 75
     0
147
1.0
148
0.0
149
0.0
100
AcDbLayout
  1
Model
 70
     1
 71
     0
 10
0.0
 20
0.0
 11
210.0
 21
297.0
 12
0.0
 22
0.0
 32
0.0
 14
0.0
 24
0.0
 34
0.0
 15
210.0
 25
297.0
 35
0.0
146
0.0
 13
0.0
 23
0.0
 33
0.0
 16
1.0
 26
0.0
 36
0.0
 17
0.0
 27
1.0
 37
0.0
 76
     0
330
1F
331
29
  0
MLINESTYLE
  5
18
102
{ACAD_REACTORS
330
17
102
}
330
17
100
AcDbMlineStyle
  2
Standard
 70
     0
  3

 62
   256
 51
90.0
 52
90.0
 71
     2
 49
0.5
 62
   256
  6
BYLAYER
 49
-0.5
 62
   256
  6
BYLAYER
  0
ACDBPLACEHOLDER
  5
F
102
{ACAD_REACTORS
330
E
102
}
330
E
  0
SCALE
  5
3C
102
{ACAD_REACTORS
330
3B
102
}
330
3B
100
AcDbScale
 70
     0
300
1:1
140
1.0
141
1.0
290
     1
  0
SCALE
  5
3D
102
{ACAD_REACTORS
330
3B
102
}
330
3B
100
AcDbScale
 70
     0
300
1:2
140
1.0
141
2.0
290
     0
  0
SCALE
  5
3E
102
{ACAD_REACTORS
330
3B
102
}
330
3B
100
AcDbScale
 70
     0
300
1:4
140
1.0
141
4.0
290
     0
  0
SCALE
  5
3F
102
{ACAD_REACTORS
330
3B
102
}
330
3B
100
AcDbScale
 70
     0
300
1:5
140
1.0
141
5.0
290
     0
  0
SCALE
  5
40
102
{ACAD_REACTORS
330
3B
102
}
330
3B
100
AcDbScale
 70
     0
300
1:8
140
1.0
141
8.0
290
     0
  0
SCALE
  5
41
102
{ACAD_REACTORS
330
3B
102
}
330
3B
100
AcDbScale
 70
     0
300
1:10
140
1.0
141
10.0
290
     0
  0
SCALE
  5
42
102
{ACAD_REACTORS
330
3B
102
}
330
3B
100
AcDbScale
 70
     0
300
1:16
140
1.0
141
16.0
290
     0
  0
SCALE
  5
43
102
{ACAD_REACTORS
330
3B
102
}
330
3B
100
AcDbScale
 70
     0
300
1:20
140
1.0
141
20.0
290
     0
  0
SCALE
  5
44
102
{ACAD_REACTORS
330
3B
102
}
330
3B
100
AcDbScale
 70
     0
300
1:30
140
1.0
141
30.0
290
     0
  0
SCALE
  5
45
102
{ACAD_REACTORS
330
3B
102
}
330
3B
100
AcDbScale
 70
     0
300
1:40
140
1.0
141
40.0
290
     0
  0
SCALE
  5
46
102
{ACAD_REACTORS
330
3B
102
}
330
3B
100
AcDbScale
 70
     0
300
1:50
140
1.0
141
50.0
290
     0
  0
SCALE
  5
47
102
{ACAD_REACTORS
330
3B
102
}
330
3B
100
AcDbScale
 70
     0
300
1:100
140
1.0
141
100.0
290
     0
  0
SCALE
  5
48
102
{ACAD_REACTORS
330
3B
102
}
330
3B
100
AcDbScale
 70
     0
300
2:1
140
2.0
141
1.0
290
     0
  0
SCALE
  5
49
102
{ACAD_REACTORS
330
3B
102
}
330
3B
100
AcDbScale
 70
     0
300
4:1
140
4.0
141
1.0
290
     0
  0
SCALE
  5
4A
102
{ACAD_REACTORS
330
3B
102
}
330
3B
100
AcDbScale
 70
     0
300
8:1
140
8.0
141
1.0
290
     0
  0
SCALE
  5
4B
102
{ACAD_REACTORS
330
3B
102
}
330
3B
100
AcDbScale
 70
     0
300
10:1
140
10.0
141
1.0
290
     0
  0
SCALE
  5
4C
102
{ACAD_REACTORS
330
3B
102
}
330
3B
100
AcDbScale
 70
     0
300
100:1
140
100.0
141
1.0
290
     0
  0
SCALE
  5
4D
102
{ACAD_REACTORS
330
3B
102
}
330
3B
100
AcDbScale
 70
     0
300
1/128" = 1'-0"
140
0.0078125
141
12.0
290
     0
  0
SCALE
  5
4E
102
{ACAD_REACTORS
330
3B
102
}
330
3B
100
AcDbScale
 70
     0
300
1/64" = 1'-0"
140
0.015625
141
12.0
290
     0
  0
SCALE
  5
4F
102
{ACAD_REACTORS
330
3B
102
}
330
3B
100
AcDbScale
 70
     0
300
1/32" = 1'-0"
140
0.03125
141
12.0
290
     0
  0
SCALE
  5
50
102
{ACAD_REACTORS
330
3B
102
}
330
3B
100
AcDbScale
 70
     0
300
1/16" = 1'-0"
140
0.0625
141
12.0
290
     0
  0
SCALE
  5
51
102
{ACAD_REACTORS
330
3B
102
}
330
3B
100
AcDbScale
 70
     0
300
3/32" = 1'-0"
140
0.09375
141
12.0
290
     0
  0
SCALE
  5
52
102
{ACAD_REACTORS
330
3B
102
}
330
3B
100
AcDbScale
 70
     0
300
1/8" = 1'-0"
140
0.125
141
12.0
290
     0
  0
SCALE
  5
53
102
{ACAD_REACTORS
330
3B
102
}
330
3B
100
AcDbScale
 70
     0
300
3/16" = 1'-0"
140
0.1875
141
12.0
290
     0
  0
SCALE
  5
54
102
{ACAD_REACTORS
330
3B
102
}
330
3B
100
AcDbScale
 70
     0
300
1/4" = 1'-0"
140
0.25
141
12.0
290
     0
  0
SCALE
  5
55
102
{ACAD_REACTORS
330
3B
102
}
330
3B
100
AcDbScale
 70
     0
300
3/8" = 1'-0"
140
0.375
141
12.0
290
     0
  0
SCALE
  5
56
102
{ACAD_REACTORS
330
3B
102
}
330
3B
100
AcDbScale
 70
     0
300
1/2" = 1'-0"
140
0.5
141
12.0
290
     0
  0
SCALE
  5
57
102
{ACAD_REACTORS
330
3B
102
}
330
3B
100
AcDbScale
 70
     0
300
3/4" = 1'-0"
140
0.75
141
12.0
290
     0
  0
SCALE
  5
58
102
{ACAD_REACTORS
330
3B
102
}
330
3B
100
AcDbScale
 70
     0
300
1" = 1'-0"
140
1.0
141
12.0
290
     0
  0
SCALE
  5
59
102
{ACAD_REACTORS
330
3B
102
}
330
3B
100
AcDbScale
 70
     0
300
1-1/2" = 1'-0"
140
1.5
141
12.0
290
     0
  0
SCALE
  5
5A
102
{ACAD_REACTORS
330
3B
102
}
330
3B
100
AcDbScale
 70
     0
300
3" = 1'-0"
140
3.0
141
12.0
290
     0
  0
SCALE
  5
5B
102
{ACAD_REACTORS
330
3B
102
}
330
3B
100
AcDbScale
 70
     0
300
6" = 1'-0"
140
6.0
141
12.0
290
     0
  0
SCALE
  5
5C
102
{ACAD_REACTORS
330
3B
102
}
330
3B
100
AcDbScale
 70
     0
300
1'-0" = 1'-0"
140
12.0
141
12.0
290
     0
  0
VISUALSTYLE
  5
2F
102
{ACAD_REACTORS
330
2A
102
}
330
2A
100
AcDbVisualStyle
  2
2dWireframe
 70
     4
 71
     0
 72
     2
 73
     0
 90
        0
 40
-0.6
 41
-30.0
 62
     5
 63
     7
 74
     1
 91
        4
 64
     7
 65
   257
 75
     1
175
     1
 42
1.0
 92
        0
 66
   257
 43
1.0
 76
     1
 77
     6
 78
     2
 67
     7
 79
     5
170
     0
171
     0
290
     0
174
     0
 93
        1
 44
0.0
173
     0
291
     0
 45
0.0
1001
ACAD
1000
AcDbSavedByObjectVersion
1070
     0
  0
VISUALSTYLE
  5
31
102
{ACAD_REACTORS
330
2A
102
}
330
2A
100
AcDbVisualStyle
  2
3D Hidden
 70
     6
 71
     1
 72
     2
 73
     2
 90
        0
 40
-0.6
 41
-30.0
 62
     5
 63
     7
 74
     2
 91
        2
 64
     7
 65
   257
 75
     2
175
     1
 42
40.0
 92
        0
 66
   257
 43
1.0
 76
     1
 77
     6
 78
     2
 67
     7
 79
     3
170
     0
171
     0
290
     0
174
     0
 93
        1
 44
0.0
173
     0
291
     0
 45
0.0
1001
ACAD
1000
AcDbSavedByObjectVersion
1070
     0
  0
VISUALSTYLE
  5
30
102
{ACAD_REACTORS
330
2A
102
}
330
2A
100
AcDbVisualStyle
  2
3dWireframe
 70
     5
 71
     0
 72
     2
 73
     0
 90
        0
 40
-0.6
 41
-30.0
 62
     5
 63
     7
 74
     1
 91
        4
 64
     7
 65
   257
 75
     1
175
     1
 42
1.0
 92
        0
 66
   257
 43
1.0
 76
     1
 77
     6
 78
     2
 67
     7
 79
     5
170
     0
171
     0
290
     0
174
     0
 93
        1
 44
0.0
173
     0
291
     0
 45
0.0
1001
ACAD
1000
AcDbSavedByObjectVersion
1070
     0
  0
VISUALSTYLE
  5
32
102
{ACAD_REACTORS
330
2A
102
}
330
2A
100
AcDbVisualStyle
  2
Basic
 70
     7
 71
     1
 72
     0
 73
     1
 90
        0
 40
-0.6
 41
-30.0
 62
     5
 63
     7
 74
     0
 91
        4
 64
     7
 65
   257
 75
     1
175
     1
 42
1.0
 92
        8
 66
     7
 43
1.0
 76
     1
 77
     6
 78
     2
 67
     7
 79
     5
170
     0
171
     0
290
     0
174
     0
 93
        1
 44
0.0
173
     0
291
     1
 45
0.0
1001
ACAD
1000
AcDbSavedByObjectVersion
1070
     0
  0
VISUALSTYLE
  5
36
102
{ACAD_REACTORS
330
2A
102
}
330
2A
100
AcDbVisualStyle
  2
Brighten
 70
    12
 71
     2
 72
     2
 73
     0
 90
        0
 40
-0.6
 41
-30.0
 62
     5
 63
     7
 74
     1
 91
        4
 64
     7
 65
   257
 75
     1
175
     1
 42
1.0
 92
        8
 66
     7
 43
1.0
 76
     1
 77
     6
 78
     2
 67
     7
 79
     5
170
     0
171
     0
290
     0
174
     0
 93
        1
 44
50.0
173
     0
291
     1
 45
0.0
1001
ACAD
1000
AcDbSavedByObjectVersion
1070
     0
  0
VISUALSTYLE
  5
3A
102
{ACAD_REACTORS
330
2A
102
}
330
2A
100
AcDbVisualStyle
  2
ColorChange
 70
    16
 71
     2
 72
     2
 73
     3
 90
        0
 40
-0.6
 41
-30.0
 62
     5
 63
     8
 74
     1
 91
        4
 64
     7
 65
   257
 75
     1
175
     1
 42
1.0
 92
        8
 66
     8
 43
1.0
 76
     1
 77
     6
 78
     2
 67
     7
 79
     5
170
     0
171
     0
290
     0
174
     0
 93
        1
 44
0.0
173
     0
291
     1
 45
0.0
1001
ACAD
1000
AcDbSavedByObjectVersion
1070
     0
  0
VISUALSTYLE
  5
34
102
{ACAD_REACTORS
330
2A
102
}
330
2A
100
AcDbVisualStyle
  2
Conceptual
 70
     9
 71
     3
 72
     2
 73
     0
 90
        0
 40
-0.6
 41
-30.0
 62
     5
 63
     7
 74
     2
 91
        2
 64
     7
 65
   257
 75
     1
175
     1
 42
40.0
 92
        8
 66
     7
 43
1.0
 76
     1
 77
     6
 78
     2
 67
     7
 79
     3
170
     0
171
     0
290
     0
174
     0
 93
        1
 44
0.0
173
     0
291
     0
 45
0.0
1001
ACAD
1000
AcDbSavedByObjectVersion
1070
     0
  0
VISUALSTYLE
  5
35
102
{ACAD_REACTORS
330
2A
102
}
330
2A
100
AcDbVisualStyle
  2
Dim
 70
    11
 71
     2
 72
     2
 73
     0
 90
        0
 40
-0.6
 41
-30.0
 62
     5
 63
     7
 74
     1
 91
        4
 64
     7
 65
   257
 75
     1
175
     1
 42
1.0
 92
        8
 66
     7
 43
1.0
 76
     1
 77
     6
 78
     2
 67
     7
 79
     5
170
     0
171
     0
290
     0
174
     0
 93
        1
 44
-50.0
173
     0
291
     1
 45
0.0
1001
ACAD
1000
AcDbSavedByObjectVersion
1070
     0
  0
VISUALSTYLE
  5
39
102
{ACAD_REACTORS
330
2A
102
}
330
2A
100
AcDbVisualStyle
  2
Facepattern
 70
    15
 71
     2
 72
     2
 73
     0
 90
        0
 40
-0.6
 41
-30.0
 62
     5
 63
     7
 74
     1
 91
        4
 64
     7
 65
   257
 75
     1
175
     1
 42
1.0
 92
        8
 66
     7
 43
1.0
 76
     1
 77
     6
 78
     2
 67
     7
 79
     5
170
     0
171
     0
290
     0
174
     0
 93
        1
 44
0.0
173
     0
291
     1
 45
0.0
1001
ACAD
1000
AcDbSavedByObjectVersion
1070
     0
  0
VISUALSTYLE
  5
2B
102
{ACAD_REACTORS
330
2A
102
}
330
2A
100
AcDbVisualStyle
  2
Flat
 70
     0
 71
     2
 72
     1
 73
     1
 90
        2
 40
-0.6
 41
30.0
 62
     5
 63
     7
 74
     0
 91
        4
 64
     7
 65
   257
 75
     1
175
     1
 42
1.0
 92
        8
 66
     7
 43
1.0
 76
     1
 77
     6
 78
     2
 67
     7
 79
     5
170
     0
171
     0
290
     0
174
     0
 93
       13
 44
0.0
173
     0
291
     1
 45
0.0
1001
ACAD
1000
AcDbSavedByObjectVersion
1070
     0
  0
VISUALSTYLE
  5
2C
102
{ACAD_REACTORS
330
2A
102
}
330
2A
100
AcDbVisualStyle
  2
FlatWithEdges
 70
     1
 71
     2
 72
     1
 73
     1
 90
        2
 40
-0.6
 41
30.0
 62
     5
 63
     7
 74
     1
 91
        4
 64
     7
 65
   257
 75
     1
175
     1
 42
1.0
 92
        0
 66
   257
 43
1.0
 76
     1
 77
     6
 78
     2
 67
     7
 79
     5
170
     0
171
     0
290
     0
174
     0
 93
       13
 44
0.0
173
     0
291
     1
 45
0.0
1001
ACAD
1000
AcDbSavedByObjectVersion
1070
     0
  0
VISUALSTYLE
  5
2D
102
{ACAD_REACTORS
330
2A
102
}
330
2A
100
AcDbVisualStyle
  2
Gouraud
 70
     2
 71
     2
 72
     2
 73
     1
 90
        2
 40
-0.6
 41
30.0
 62
     5
 63
     7
 74
     0
 91
        4
 64
     7
 65
   257
 75
     1
175
     1
 42
1.0
 92
        0
 66
     7
 43
1.0
 76
     1
 77
     6
 78
     2
 67
     7
 79
     5
170
     0
171
     0
290
     0
174
     0
 93
       13
 44
0.0
173
     0
291
     1
 45
0.0
1001
ACAD
1000
AcDbSavedByObjectVersion
1070
     0
  0
VISUALSTYLE
  5
2E
102
{ACAD_REACTORS
330
2A
102
}
330
2A
100
AcDbVisualStyle
  2
GouraudWithEdges
 70
     3
 71
     2
 72
     2
 73
     1
 90
        2
 40
-0.6
 41
30.0
 62
     5
 63
     7
 74
     1
 91
        4
 64
     7
 65
   257
 75
     1
175
     1
 42
1.0
 92
        0
 66
   257
 43
1.0
 76
     1
 77
     6
 78
     2
 67
     7
 79
     5
170
     0
171
     0
290
     0
174
     0
 93
       13
 44
0.0
173
     0
291
     1
 45
0.0
1001
ACAD
1000
AcDbSavedByObjectVersion
1070
     0
  0
VISUALSTYLE
  5
38
102
{ACAD_REACTORS
330
2A
102
}
330
2A
100
AcDbVisualStyle
  2
Linepattern
 70
    14
 71
     2
 72
     2
 73
     0
 90
        0
 40
-0.6
 41
-30.0
 62
     5
 63
     7
 74
     1
 91
        4
 64
     7
 65
   257
 75
     7
175
     7
 42
1.0
 92
        8
 66
     7
 43
1.0
 76
     1
 77
     6
 78
     2
 67
     7
 79
     5
170
     0
171
     0
290
     0
174
     0
 93
        1
 44
0.0
173
     0
291
     1
 45
0.0
1001
ACAD
1000
AcDbSavedByObjectVersion
1070
     0
  0
VISUALSTYLE
  5
33
102
{ACAD_REACTORS
330
2A
102
}
330
2A
100
AcDbVisualStyle
  2
Realistic
 70
     8
 71
     2
 72
     2
 73
     0
 90
        0
 40
-0.6
 41
-30.0
 62
     5
 63
     7
 74
     1
 91
        0
 64
     7
 65
   257
 75
     1
175
     1
 42
1.0
 92
        8
 66
     8
 43
1.0
 76
     1
 77
     6
 78
     2
 67
     7
 79
     5
170
     0
171
     0
290
     0
174
     0
 93
       13
 44
0.0
173
     0
291
     0
 45
0.0
1001
ACAD
1000
AcDbSavedByObjectVersion
1070
     0
  0
VISUALSTYLE
  5
37
102
{ACAD_REACTORS
330
2A
102
}
330
2A
100
AcDbVisualStyle
  2
Thicken
 70
    13
 71
     2
 72
     2
 73
     0
 90
        0
 40
-0.6
 41
-30.0
 62
     5
 63
     7
 74
     1
 91
        4
 64
     7
 65
   257
 75
     1
175
     1
 42
1.0
 92
       12
 66
     7
 43
1.0
 76
     1
 77
     6
 78
     2
 67
     7
 79
     5
170
     0
171
     0
290
     0
174
     0
 93
        1
 44
0.0
173
     0
291
     1
 45
0.0
1001
ACAD
1000
AcDbSavedByObjectVersion
1070
     0
  0
DICTIONARYVAR
  5
DF
102
{ACAD_REACTORS
330
DE
102
}
330
DE
100
DictionaryVariables
280
     0
  1
1:1
  0
DICTIONARYVAR
  5
E3
102
{ACAD_REACTORS
330
DE
102
}
330
DE
100
DictionaryVariables
280
     0
  1
80.000000
  0
DICTIONARYVAR
  5
E2
102
{ACAD_REACTORS
330
DE
102
}
330
DE
100
DictionaryVariables
280
     0
  1
5.000000
  0
ENDSEC
  0
EOF
