  0
SECTION
  2
HEADER
  9
$ACADVER
  1
AC1014
  9
$ACADMAINTVER
 70
     9
  9
$DWGCODEPAGE
  3
ANSI_1252
  9
$INSBASE
 10
0.0
 20
0.0
 30
0.0
  9
$EXTMIN
 10
-1605.18470977237
 20
-1674.749378347296
 30
0.0
  9
$EXTMAX
 10
2655.25820933469
 20
799.9132000000001
 30
0.0
  9
$LIMMIN
 10
0.0
 20
0.0
  9
$LIMMAX
 10
12.0
 20
9.0
  9
$ORTHOMODE
 70
     0
  9
$REGENMODE
 70
     1
  9
$FILLMODE
 70
     1
  9
$QTEXTMODE
 70
     0
  9
$MIRRTEXT
 70
     1
  9
$DRAGMODE
 70
     2
  9
$LTSCALE
 40
1.0
  9
$OSMODE
 70
    37
  9
$ATTMODE
 70
     1
  9
$TEXTSIZE
 40
0.2
  9
$TRACEWID
 40
0.05
  9
$TEXTSTYLE
  7
STANDARD
  9
$CLAYER
  8
0
  9
$CELTYPE
  6
BYLAYER
  9
$CECOLOR
 62
   256
  9
$CELTSCALE
 40
1.0
  9
$DELOBJ
 70
     1
  9
$DISPSILH
 70
     0
  9
$DIMSCALE
 40
1.0
  9
$DIMASZ
 40
0.18
  9
$DIMEXO
 40
0.0625
  9
$DIMDLI
 40
0.38
  9
$DIMRND
 40
0.0
  9
$DIMDLE
 40
0.0
  9
$DIMEXE
 40
0.18
  9
$DIMTP
 40
0.0
  9
$DIMTM
 40
0.0
  9
$DIMTXT
 40
0.18
  9
$DIMCEN
 40
0.09
  9
$DIMTSZ
 40
0.0
  9
$DIMTOL
 70
     0
  9
$DIMLIM
 70
     0
  9
$DIMTIH
 70
     1
  9
$DIMTOH
 70
     1
  9
$DIMSE1
 70
     0
  9
$DIMSE2
 70
     0
  9
$DIMTAD
 70
     0
  9
$DIMZIN
 70
     0
  9
$DIMBLK
  1

  9
$DIMASO
 70
     1
  9
$DIMSHO
 70
     1
  9
$DIMPOST
  1

  9
$DIMAPOST
  1

  9
$DIMALT
 70
     0
  9
$DIMALTD
 70
     2
  9
$DIMALTF
 40
25.4
  9
$DIMLFAC
 40
1.0
  9
$DIMTOFL
 70
     0
  9
$DIMTVP
 40
0.0
  9
$DIMTIX
 70
     0
  9
$DIMSOXD
 70
     0
  9
$DIMSAH
 70
     0
  9
$DIMBLK1
  1

  9
$DIMBLK2
  1

  9
$DIMSTYLE
  2
STANDARD
  9
$DIMCLRD
 70
     0
  9
$DIMCLRE
 70
     0
  9
$DIMCLRT
 70
     0
  9
$DIMTFAC
 40
1.0
  9
$DIMGAP
 40
0.09
  9
$DIMJUST
 70
     0
  9
$DIMSD1
 70
     0
  9
$DIMSD2
 70
     0
  9
$DIMTOLJ
 70
     1
  9
$DIMTZIN
 70
     0
  9
$DIMALTZ
 70
     0
  9
$DIMALTTZ
 70
     0
  9
$DIMFIT
 70
     3
  9
$DIMUPT
 70
     0
  9
$DIMUNIT
 70
     2
  9
$DIMDEC
 70
     4
  9
$DIMTDEC
 70
     4
  9
$DIMALTU
 70
     2
  9
$DIMALTTD
 70
     2
  9
$DIMTXSTY
  7
STANDARD
  9
$DIMAUNIT
 70
     0
  9
$LUNITS
 70
     2
  9
$LUPREC
 70
     4
  9
$SKETCHINC
 40
0.1
  9
$FILLETRAD
 40
0.5
  9
$AUNITS
 70
     0
  9
$AUPREC
 70
     0
  9
$MENU
  1
.
  9
$ELEVATION
 40
0.0
  9
$PELEVATION
 40
0.0
  9
$THICKNESS
 40
0.0
  9
$LIMCHECK
 70
     0
  9
$CHAMFERA
 40
0.0
  9
$CHAMFERB
 40
0.0
  9
$CHAMFERC
 40
0.0
  9
$CHAMFERD
 40
0.0
  9
$SKPOLY
 70
     0
  9
$TDCREATE
 40
2459535.735216666
  9
$TDUPDATE
 40
2459535.735217384
  9
$TDINDWG
 40
0.0000000116
  9
$TDUSRTIMER
 40
0.0000000116
  9
$USRTIMER
 70
     1
  9
$ANGBASE
 50
0.0
  9
$ANGDIR
 70
     0
  9
$PDMODE
 70
     0
  9
$PDSIZE
 40
0.0
  9
$PLINEWID
 40
0.0
  9
$COORDS
 70
     1
  9
$SPLFRAME
 70
     0
  9
$SPLINETYPE
 70
     6
  9
$SPLINESEGS
 70
     8
  9
$ATTDIA
 70
     0
  9
$ATTREQ
 70
     1
  9
$HANDLING
 70
     1
  9
$HANDSEED
  5
64D
  9
$SURFTAB1
 70
     6
  9
$SURFTAB2
 70
     6
  9
$SURFTYPE
 70
     6
  9
$SURFU
 70
     6
  9
$SURFV
 70
     6
  9
$UCSNAME
  2

  9
$UCSORG
 10
0.0
 20
0.0
 30
0.0
  9
$UCSXDIR
 10
1.0
 20
0.0
 30
0.0
  9
$UCSYDIR
 10
0.0
 20
1.0
 30
0.0
  9
$PUCSNAME
  2

  9
$PUCSORG
 10
0.0
 20
0.0
 30
0.0
  9
$PUCSXDIR
 10
1.0
 20
0.0
 30
0.0
  9
$PUCSYDIR
 10
0.0
 20
1.0
 30
0.0
  9
$USERI1
 70
     0
  9
$USERI2
 70
     0
  9
$USERI3
 70
     0
  9
$USERI4
 70
     0
  9
$USERI5
 70
     0
  9
$USERR1
 40
20.3
  9
$USERR2
 40
0.0
  9
$USERR3
 40
0.0
  9
$USERR4
 40
0.0
  9
$USERR5
 40
0.0
  9
$WORLDVIEW
 70
     1
  9
$SHADEDGE
 70
     3
  9
$SHADEDIF
 70
    70
  9
$TILEMODE
 70
     1
  9
$MAXACTVP
 70
    64
  9
$PINSBASE
 10
0.0
 20
0.0
 30
0.0
  9
$PLIMCHECK
 70
     0
  9
$PEXTMIN
 10
1.00000000000000E+20
 20
1.00000000000000E+20
 30
1.00000000000000E+20
  9
$PEXTMAX
 10
-1.00000000000000E+20
 20
-1.00000000000000E+20
 30
-1.00000000000000E+20
  9
$PLIMMIN
 10
0.0
 20
0.0
  9
$PLIMMAX
 10
12.0
 20
9.0
  9
$UNITMODE
 70
     0
  9
$VISRETAIN
 70
     1
  9
$PLINEGEN
 70
     0
  9
$PSLTSCALE
 70
     1
  9
$TREEDEPTH
 70
  3020
  9
$PICKSTYLE
 70
     1
  9
$CMLSTYLE
  2
STANDARD
  9
$CMLJUST
 70
     0
  9
$CMLSCALE
 40
1.0
  9
$PROXYGRAPHICS
 70
     1
  9
$MEASUREMENT
 70
     1
  0
ENDSEC
  0
SECTION
  2
CLASSES
  0
CLASS
  1
ACDBDICTIONARYWDFLT
  2
AcDbDictionaryWithDefault
  3
ObjectDBX Classes
 90
        0
280
     0
281
     0
  0
CLASS
  1
VISUALSTYLE
  2
AcDbVisualStyle
  3
ObjectDBX Classes
 90
     4095
280
     0
281
     0
  0
CLASS
  1
MATERIAL
  2
AcDbMaterial
  3
ObjectDBX Classes
 90
     1153
280
     0
281
     0
  0
CLASS
  1
SCALE
  2
AcDbScale
  3
ObjectDBX Classes
 90
     1153
280
     0
281
     0
  0
CLASS
  1
TABLESTYLE
  2
AcDbTableStyle
  3
ObjectDBX Classes
 90
     4095
280
     0
281
     0
  0
CLASS
  1
MLEADERSTYLE
  2
AcDbMLeaderStyle
  3
ACDB_MLEADERSTYLE_CLASS
 90
     4095
280
     0
281
     0
  0
CLASS
  1
SUN
  2
AcDbSun
  3
SCENEOE
 90
     1153
280
     0
281
     0
  0
CLASS
  1
DICTIONARYVAR
  2
AcDbDictionaryVar
  3
ObjectDBX Classes
 90
        0
280
     0
281
     0
  0
CLASS
  1
XRECORD
  2
AcDbXrecord
  3
ObjectDBX Classes
 90
        0
280
     0
281
     0
  0
CLASS
  1
LWPOLYLINE
  2
AcDbPolyline
  3
ObjectDBX Classes
 90
        0
280
     0
281
     1
  0
CLASS
  1
HATCH
  2
AcDbHatch
  3
ObjectDBX Classes
 90
        0
280
     0
281
     1
  0
CLASS
  1
ACDBPLACEHOLDER
  2
AcDbPlaceHolder
  3
ObjectDBX Classes
 90
        0
280
     0
281
     0
  0
CLASS
  1
LAYOUT
  2
AcDbLayout
  3
ObjectDBX Classes
 90
        0
280
     0
281
     0
  0
ENDSEC
  0
SECTION
  2
TABLES
  0
TABLE
  2
VPORT
  5
8
102
{ACAD_XDICTIONARY
360
642
102
}
330
0
100
AcDbSymbolTable
 70
     1
  0
VPORT
  5
29
330
8
100
AcDbSymbolTableRecord
100
AcDbViewportTableRecord
  2
*ACTIVE
 70
     0
 10
0.0
 20
0.0
 11
1.0
 21
1.0
 12
525.03674978116
 22
-437.418089173648
 13
0.0
 23
0.0
 14
0.5
 24
0.5
 15
0.5
 25
0.5
 16
0.0
 26
0.0
 36
1.0
 17
0.0
 27
0.0
 37
0.0
 40
2924.15915116429
 41
1.60267857142857
 42
50.0
 43
0.0
 44
0.0
 50
0.0
 51
0.0
 71
     0
 72
   100
 73
     1
 74
     3
 75
     0
 76
     0
 77
     0
 78
     0
  0
ENDTAB
  0
TABLE
  2
LTYPE
  5
5
330
0
100
AcDbSymbolTable
 70
     8
  0
LTYPE
  5
14
330
5
100
AcDbSymbolTableRecord
100
AcDbLinetypeTableRecord
  2
BYBLOCK
 70
     0
  3

 72
    65
 73
     0
 40
0.0
  0
LTYPE
  5
15
330
5
100
AcDbSymbolTableRecord
100
AcDbLinetypeTableRecord
  2
BYLAYER
 70
     0
  3

 72
    65
 73
     0
 40
0.0
  0
LTYPE
  5
16
330
5
100
AcDbSymbolTableRecord
100
AcDbLinetypeTableRecord
  2
CONTINUOUS
 70
     0
  3
Solid line
 72
    65
 73
     0
 40
0.0
  0
LTYPE
  5
6E
330
5
100
AcDbSymbolTableRecord
100
AcDbLinetypeTableRecord
  2
DASHED
 70
     0
  3
Dashed
 72
    65
 73
     2
 40
15.0
 49
7.0
 74
     0
 49
-8.0
 74
     0
  0
LTYPE
  5
6F
330
5
100
AcDbSymbolTableRecord
100
AcDbLinetypeTableRecord
  2
DOTTED
 70
     0
  3
Dotted
 72
    65
 73
     2
 40
1.0
 49
0.0
 74
     0
 49
-1.0
 74
     0
  0
LTYPE
  5
70
330
5
100
AcDbSymbolTableRecord
100
AcDbLinetypeTableRecord
  2
DOT_CENTER
 70
     0
  3
Dot_Center
 72
    65
 73
     4
 40
14.0
 49
12.0
 74
     0
 49
-1.0
 74
     0
 49
0.0
 74
     0
 49
-1.0
 74
     0
  0
LTYPE
  5
71
330
5
100
AcDbSymbolTableRecord
100
AcDbLinetypeTableRecord
  2
LONG_DASHED
 70
     0
  3
Long_Dashed
 72
    65
 73
     2
 40
15.0
 49
10.0
 74
     0
 49
-5.0
 74
     0
  0
LTYPE
  5
72
330
5
100
AcDbSymbolTableRecord
100
AcDbLinetypeTableRecord
  2
DASH_CENTER
 70
     0
  3
Dash_Center
 72
    65
 73
     4
 40
14.0
 49
11.0
 74
     0
 49
-1.0
 74
     0
 49
1.0
 74
     0
 49
-1.0
 74
     0
  0
LTYPE
  5
73
330
5
100
AcDbSymbolTableRecord
100
AcDbLinetypeTableRecord
  2
PHANTOM
 70
     0
  3
Phantom
 72
    65
 73
     6
 40
13.0
 49
10.0
 74
     0
 49
-1.0
 74
     0
 49
0.0
 74
     0
 49
-1.0
 74
     0
 49
0.0
 74
     0
 49
-1.0
 74
     0
  0
LTYPE
  5
74
330
5
100
AcDbSymbolTableRecord
100
AcDbLinetypeTableRecord
  2
CENTER_DASH_DASH
 70
     0
  3
Center_Dash_Dash
 72
    65
 73
     6
 40
14.0
 49
9.0
 74
     0
 49
-1.0
 74
     0
 49
1.0
 74
     0
 49
-1.0
 74
     0
 49
1.0
 74
     0
 49
-1.0
 74
     0
  0
ENDTAB
  0
TABLE
  2
LAYER
  5
2
330
0
100
AcDbSymbolTable
 70
     2
  0
LAYER
  5
10
330
2
100
AcDbSymbolTableRecord
100
AcDbLayerTableRecord
  2
0
 70
     0
 62
     7
  6
CONTINUOUS
  0
LAYER
  5
75
330
2
100
AcDbSymbolTableRecord
100
AcDbLayerTableRecord
  2
1
 70
     0
 62
     7
  6
CONTINUOUS
  0
ENDTAB
  0
TABLE
  2
STYLE
  5
3
330
0
100
AcDbSymbolTable
 70
     4
  0
STYLE
  5
11
330
3
100
AcDbSymbolTableRecord
100
AcDbTextStyleTableRecord
  2
STANDARD
 70
     0
 40
0.0
 41
1.0
 50
0.0
 71
     0
 42
0.2
  3
txt
  4

  0
STYLE
  5
3B7
330
3
100
AcDbSymbolTableRecord
100
AcDbTextStyleTableRecord
  2
CONVERTER_11
 70
     0
 40
0.0
 41
0.9
 50
0.0
 71
     0
 42
0.2
  3
txt.shx
  4

  0
STYLE
  5
606
330
3
100
AcDbSymbolTableRecord
100
AcDbTextStyleTableRecord
  2
CONVERTER_12
 70
     0
 40
0.0
 41
1.188
 50
0.0
 71
     0
 42
0.2
  3
ARIAL.TTF
  4

  0
STYLE
  5
610
330
3
100
AcDbSymbolTableRecord
100
AcDbTextStyleTableRecord
  2
CONVERTER_13
 70
     0
 40
0.0
 41
0.95
 50
0.0
 71
     0
 42
0.2
  3
complex.shx
  4

  0
ENDTAB
  0
TABLE
  2
VIEW
  5
6
330
0
100
AcDbSymbolTable
 70
     0
  0
ENDTAB
  0
TABLE
  2
UCS
  5
7
330
0
100
AcDbSymbolTable
 70
     0
  0
ENDTAB
  0
TABLE
  2
APPID
  5
9
330
0
100
AcDbSymbolTable
 70
     2
  0
APPID
  5
12
330
9
100
AcDbSymbolTableRecord
100
AcDbRegAppTableRecord
  2
ACAD
 70
     0
  0
APPID
  5
64C
330
9
100
AcDbSymbolTableRecord
100
AcDbRegAppTableRecord
  2
ACAD_MLEADERVER
 70
     0
  0
ENDTAB
  0
TABLE
  2
DIMSTYLE
  5
A
330
0
100
AcDbSymbolTable
 70
     8
  0
DIMSTYLE
105
27
330
A
100
AcDbSymbolTableRecord
100
AcDbDimStyleTableRecord
  2
STANDARD
 70
     0
  3

  4

  5

  6

  7

 40
1.0
 41
0.18
 42
0.0625
 43
0.38
 44
0.18
 45
0.0
 46
0.0
 47
0.0
 48
0.0
140
0.18
141
0.09
142
0.0
143
25.4
144
1.0
145
0.0
146
1.0
147
0.09
 71
     0
 72
     0
 73
     1
 74
     1
 75
     0
 76
     0
 77
     0
 78
     0
170
     0
171
     2
172
     0
173
     0
174
     0
175
     0
176
     0
177
     0
178
     0
270
     2
271
     4
272
     4
273
     2
274
     2
340
11
275
     0
280
     0
281
     0
282
     0
283
     1
284
     0
285
     0
286
     0
287
     3
288
     0
  0
DIMSTYLE
105
3C0
102
{ACAD_REACTORS
330
3C1
102
}
330
A
100
AcDbSymbolTableRecord
100
AcDbDimStyleTableRecord
  2
ME10_DIM_10
 70
     0
  3

  4

  5

  6

  7

 40
1.0
 41
3.5
 42
1.5
 43
0.38
 44
1.0
 45
0.0
 46
0.0
 47
0.0
 48
0.0
140
3.5
141
0.09
142
0.0
143
25.4
144
1.0
145
0.0
146
1.0
147
2.0
 71
     0
 72
     0
 73
     0
 74
     0
 75
     1
 76
     1
 77
     1
 78
     8
170
     0
171
     2
172
     1
173
     1
174
     1
175
     1
176
     1
177
     1
178
     3
270
     2
271
     3
272
     4
273
     2
274
     2
340
3B7
275
     0
280
     0
281
     0
282
     0
283
     1
284
     0
285
     0
286
     0
287
     3
288
     0
  0
DIMSTYLE
105
456
102
{ACAD_REACTORS
330
457
102
}
330
A
100
AcDbSymbolTableRecord
100
AcDbDimStyleTableRecord
  2
ME10_DIM_11
 70
     0
  3

  4

  5

  6

  7

 40
1.0
 41
3.5
 42
1.5
 43
0.38
 44
1.0
 45
0.0
 46
0.0
 47
1.0
 48
1.0
140
3.5
141
0.09
142
0.0
143
25.4
144
1.0
145
0.0
146
0.6
147
2.0
 71
     1
 72
     0
 73
     0
 74
     0
 75
     0
 76
     0
 77
     1
 78
     8
170
     0
171
     2
172
     1
173
     1
174
     1
175
     1
176
     1
177
     1
178
     3
270
     2
271
     1
272
     0
273
     2
274
     2
340
3B7
275
     0
280
     0
281
     0
282
     0
283
     1
284
     0
285
     0
286
     0
287
     3
288
     0
  0
DIMSTYLE
105
4F6
102
{ACAD_REACTORS
330
4F7
102
}
330
A
100
AcDbSymbolTableRecord
100
AcDbDimStyleTableRecord
  2
ME10_DIM_12
 70
     0
  3

  4

  5

  6

  7

 40
1.0
 41
3.5
 42
1.5
 43
0.38
 44
1.0
 45
0.0
 46
0.0
 47
0.0
 48
0.0
140
3.5
141
0.09
142
0.0
143
25.4
144
1.0
145
0.0
146
1.0
147
2.0
 71
     0
 72
     0
 73
     0
 74
     0
 75
     0
 76
     0
 77
     1
 78
     8
170
     0
171
     2
172
     1
173
     1
174
     1
175
     1
176
     1
177
     1
178
     3
270
     2
271
     1
272
     4
273
     2
274
     2
340
3B7
275
     0
280
     0
281
     0
282
     0
283
     1
284
     0
285
     0
286
     0
287
     3
288
     0
  0
DIMSTYLE
105
4FF
102
{ACAD_REACTORS
330
500
102
}
330
A
100
AcDbSymbolTableRecord
100
AcDbDimStyleTableRecord
  2
ME10_DIM_13
 70
     0
  3

  4

  5

  6

  7

 40
1.0
 41
3.5
 42
1.5
 43
0.38
 44
1.0
 45
0.0
 46
0.0
 47
0.0
 48
0.0
140
3.5
141
0.09
142
0.0
143
25.4
144
1.0
145
0.0
146
1.0
147
2.0
 71
     0
 72
     0
 73
     0
 74
     0
 75
     1
 76
     1
 77
     1
 78
     8
170
     0
171
     2
172
     1
173
     1
174
     1
175
     1
176
     1
177
     1
178
     3
270
     2
271
     3
272
     4
273
     2
274
     2
340
3B7
275
     0
280
     0
281
     0
282
     0
283
     1
284
     0
285
     0
286
     0
287
     3
288
     0
  0
DIMSTYLE
105
585
102
{ACAD_REACTORS
330
586
102
}
330
A
100
AcDbSymbolTableRecord
100
AcDbDimStyleTableRecord
  2
ME10_DIM_14
 70
     0
  3

  4

  5

  6

  7

 40
1.0
 41
3.5
 42
1.5
 43
0.38
 44
1.0
 45
0.0
 46
0.0
 47
0.0
 48
0.0
140
3.5
141
0.09
142
0.0
143
25.4
144
1.0
145
0.0
146
1.0
147
2.0
 71
     0
 72
     0
 73
     0
 74
     0
 75
     0
 76
     0
 77
     1
 78
     8
170
     0
171
     2
172
     1
173
     1
174
     1
175
     1
176
     1
177
     1
178
     3
270
     2
271
     3
272
     4
273
     2
274
     2
340
3B7
275
     0
280
     0
281
     0
282
     0
283
     1
284
     0
285
     0
286
     0
287
     3
288
     0
  0
DIMSTYLE
105
5DD
102
{ACAD_REACTORS
330
5DE
102
}
330
A
100
AcDbSymbolTableRecord
100
AcDbDimStyleTableRecord
  2
ME10_DIM_15
 70
     0
  3

  4

  5

  6

  7

 40
1.0
 41
3.5
 42
1.5
 43
0.38
 44
1.0
 45
0.0
 46
0.0
 47
0.0
 48
0.0
140
3.5
141
0.09
142
0.0
143
25.4
144
1.0
145
0.0
146
1.0
147
2.0
 71
     0
 72
     0
 73
     0
 74
     0
 75
     0
 76
     0
 77
     1
 78
     8
170
     0
171
     2
172
     1
173
     1
174
     1
175
     1
176
     1
177
     1
178
     3
270
     2
271
     3
272
     4
273
     2
274
     2
340
3B7
275
     0
280
     0
281
     0
282
     0
283
     1
284
     0
285
     0
286
     0
287
     3
288
     0
  0
DIMSTYLE
105
5EA
102
{ACAD_REACTORS
330
5EB
102
}
330
A
100
AcDbSymbolTableRecord
100
AcDbDimStyleTableRecord
  2
ME10_DIM_16
 70
     0
  3

  4

  5

  6

  7

 40
1.0
 41
3.5
 42
1.5
 43
0.38
 44
1.0
 45
0.0
 46
0.0
 47
3.0
 48
2.0
140
3.5
141
0.09
142
0.0
143
25.4
144
1.0
145
0.0
146
0.6
147
2.0
 71
     1
 72
     0
 73
     0
 74
     0
 75
     0
 76
     0
 77
     1
 78
     8
170
     0
171
     2
172
     1
173
     1
174
     1
175
     1
176
     1
177
     1
178
     3
270
     2
271
     3
272
     0
273
     2
274
     2
340
3B7
275
     0
280
     0
281
     0
282
     0
283
     1
284
     0
285
     0
286
     0
287
     3
288
     0
  0
ENDTAB
  0
TABLE
  2
BLOCK_RECORD
  5
1
330
0
100
AcDbSymbolTable
 70
   168
  0
BLOCK_RECORD
  5
1F
330
1
100
AcDbSymbolTableRecord
100
AcDbBlockTableRecord
  2
*MODEL_SPACE
  0
BLOCK_RECORD
  5
1B
330
1
100
AcDbSymbolTableRecord
100
AcDbBlockTableRecord
  2
*PAPER_SPACE
  0
BLOCK_RECORD
  5
76
330
1
100
AcDbSymbolTableRecord
100
AcDbBlockTableRecord
  2
PX004198_STIPITE_MONTA1__1
  0
BLOCK_RECORD
  5
79
330
1
100
AcDbSymbolTableRecord
100
AcDbBlockTableRecord
  2
PX007439_CORPO_REG_Y_C0__2
  0
BLOCK_RECORD
  5
7C
330
1
100
AcDbSymbolTableRecord
100
AcDbBlockTableRecord
  2
PD00700A24600_CORPO_RE0__3
  0
BLOCK_RECORD
  5
80
330
1
100
AcDbSymbolTableRecord
100
AcDbBlockTableRecord
  2
PX007446_BIELLA_INTERN0__4
  0
BLOCK_RECORD
  5
83
330
1
100
AcDbSymbolTableRecord
100
AcDbBlockTableRecord
  2
PD05300A09200_BIELLA_I1__5
  0
BLOCK_RECORD
  5
87
330
1
100
AcDbSymbolTableRecord
100
AcDbBlockTableRecord
  2
PX007445_BIELLA_INTERN0__6
  0
BLOCK_RECORD
  5
8A
330
1
100
AcDbSymbolTableRecord
100
AcDbBlockTableRecord
  2
PD05300A09100_BIELLA_I1__7
  0
BLOCK_RECORD
  5
8E
330
1
100
AcDbSymbolTableRecord
100
AcDbBlockTableRecord
  2
GFS0060A00100_GRUPPO_B0__8
  0
BLOCK_RECORD
  5
93
330
1
100
AcDbSymbolTableRecord
100
AcDbBlockTableRecord
  2
GFS0060A00200_GRUPPO_B0__9
  0
BLOCK_RECORD
  5
97
330
1
100
AcDbSymbolTableRecord
100
AcDbBlockTableRecord
  2
GFS0060A00300_GRUPPO_B__10
  0
BLOCK_RECORD
  5
9C
330
1
100
AcDbSymbolTableRecord
100
AcDbBlockTableRecord
  2
GFS0060A00400_GRUPPO_B__11
  0
BLOCK_RECORD
  5
A0
330
1
100
AcDbSymbolTableRecord
100
AcDbBlockTableRecord
  2
GFS0060A00500_GRUPPO_C__12
  0
BLOCK_RECORD
  5
A4
330
1
100
AcDbSymbolTableRecord
100
AcDbBlockTableRecord
  2
GFS0060A00700_GRUPPO_C__13
  0
BLOCK_RECORD
  5
A8
330
1
100
AcDbSymbolTableRecord
100
AcDbBlockTableRecord
  2
00S0060A00100_CERNIERA__14
  0
BLOCK_RECORD
  5
AC
330
1
100
AcDbSymbolTableRecord
100
AcDbBlockTableRecord
  2
SCASSO_MONTANTE_S0043___15
  0
BLOCK_RECORD
  5
AF
330
1
100
AcDbSymbolTableRecord
100
AcDbBlockTableRecord
  2
PX004196_GRUPPO_N_3_SC__16
  0
BLOCK_RECORD
  5
B3
330
1
100
AcDbSymbolTableRecord
100
AcDbBlockTableRecord
  2
FRESATE_CERNIERE_TELAI__17
  0
BLOCK_RECORD
  5
B7
330
1
100
AcDbSymbolTableRecord
100
AcDbBlockTableRecord
  2
PX001697_STIPITE_MONTA__18
  0
BLOCK_RECORD
  5
BA
330
1
100
AcDbSymbolTableRecord
100
AcDbBlockTableRecord
  2
TELAIO__19
  0
BLOCK_RECORD
  5
BE
330
1
100
AcDbSymbolTableRecord
100
AcDbBlockTableRecord
  2
PX001692_TELAIO_BATTEN__20
  0
BLOCK_RECORD
  5
C3
330
1
100
AcDbSymbolTableRecord
100
AcDbBlockTableRecord
  2
PX001595_PX001297_1187__21
  0
BLOCK_RECORD
  5
C6
330
1
100
AcDbSymbolTableRecord
100
AcDbBlockTableRecord
  2
PX001681_PANNELLO_1015__22
  0
BLOCK_RECORD
  5
CA
330
1
100
AcDbSymbolTableRecord
100
AcDbBlockTableRecord
  2
PX000467_1__23
  0
BLOCK_RECORD
  5
CD
330
1
100
AcDbSymbolTableRecord
100
AcDbBlockTableRecord
  2
PX000466_1__24
  0
BLOCK_RECORD
  5
D0
330
1
100
AcDbSymbolTableRecord
100
AcDbBlockTableRecord
  2
CM06100A01100_MANIGLIA__25
  0
BLOCK_RECORD
  5
D5
330
1
100
AcDbSymbolTableRecord
100
AcDbBlockTableRecord
  2
PX000466_1__26
  0
BLOCK_RECORD
  5
D8
330
1
100
AcDbSymbolTableRecord
100
AcDbBlockTableRecord
  2
PX000467_1__27
  0
BLOCK_RECORD
  5
DB
330
1
100
AcDbSymbolTableRecord
100
AcDbBlockTableRecord
  2
CM06100A01100_MANIGLIA__28
  0
BLOCK_RECORD
  5
E0
330
1
100
AcDbSymbolTableRecord
100
AcDbBlockTableRecord
  2
PANNELLO__29
  0
BLOCK_RECORD
  5
E6
330
1
100
AcDbSymbolTableRecord
100
AcDbBlockTableRecord
  2
PX001593_GRUPPO_ANTA_L__30
  0
BLOCK_RECORD
  5
EA
330
1
100
AcDbSymbolTableRecord
100
AcDbBlockTableRecord
  2
TKKZ0TEC43200_TECNICO___31
  0
BLOCK_RECORD
  5
F1
330
1
100
AcDbSymbolTableRecord
100
AcDbBlockTableRecord
  2
GEN10
  0
BLOCK_RECORD
  5
F5
330
1
100
AcDbSymbolTableRecord
100
AcDbBlockTableRecord
  2
SCASSO_MONTANTE_S0043___32
  0
BLOCK_RECORD
  5
F8
330
1
100
AcDbSymbolTableRecord
100
AcDbBlockTableRecord
  2
PX004196_GRUPPO_N_3_SC__33
  0
BLOCK_RECORD
  5
FC
330
1
100
AcDbSymbolTableRecord
100
AcDbBlockTableRecord
  2
FRESATE_CERNIERE_TELAI__34
  0
BLOCK_RECORD
  5
100
330
1
100
AcDbSymbolTableRecord
100
AcDbBlockTableRecord
  2
PX001697_STIPITE_MONTA__35
  0
BLOCK_RECORD
  5
103
330
1
100
AcDbSymbolTableRecord
100
AcDbBlockTableRecord
  2
TELAIO__36
  0
BLOCK_RECORD
  5
107
330
1
100
AcDbSymbolTableRecord
100
AcDbBlockTableRecord
  2
PX001692_TELAIO_BATTEN__37
  0
BLOCK_RECORD
  5
10C
330
1
100
AcDbSymbolTableRecord
100
AcDbBlockTableRecord
  2
PX004198_STIPITE_MONTA__38
  0
BLOCK_RECORD
  5
10F
330
1
100
AcDbSymbolTableRecord
100
AcDbBlockTableRecord
  2
PX007439_CORPO_REG_Y_C__39
  0
BLOCK_RECORD
  5
112
330
1
100
AcDbSymbolTableRecord
100
AcDbBlockTableRecord
  2
PD00700A24600_CORPO_RE__40
  0
BLOCK_RECORD
  5
116
330
1
100
AcDbSymbolTableRecord
100
AcDbBlockTableRecord
  2
PX007445_BIELLA_INTERN__41
  0
BLOCK_RECORD
  5
119
330
1
100
AcDbSymbolTableRecord
100
AcDbBlockTableRecord
  2
PD05300A09100_BIELLA_I__42
  0
BLOCK_RECORD
  5
11D
330
1
100
AcDbSymbolTableRecord
100
AcDbBlockTableRecord
  2
PX007446_BIELLA_INTERN__43
  0
BLOCK_RECORD
  5
120
330
1
100
AcDbSymbolTableRecord
100
AcDbBlockTableRecord
  2
PD05300A09200_BIELLA_I__44
  0
BLOCK_RECORD
  5
124
330
1
100
AcDbSymbolTableRecord
100
AcDbBlockTableRecord
  2
GFS0060A00100_GRUPPO_B__45
  0
BLOCK_RECORD
  5
129
330
1
100
AcDbSymbolTableRecord
100
AcDbBlockTableRecord
  2
GFS0060A00200_GRUPPO_B__46
  0
BLOCK_RECORD
  5
12D
330
1
100
AcDbSymbolTableRecord
100
AcDbBlockTableRecord
  2
GFS0060A00300_GRUPPO_B__47
  0
BLOCK_RECORD
  5
132
330
1
100
AcDbSymbolTableRecord
100
AcDbBlockTableRecord
  2
GFS0060A00400_GRUPPO_B__48
  0
BLOCK_RECORD
  5
136
330
1
100
AcDbSymbolTableRecord
100
AcDbBlockTableRecord
  2
GFS0060A00500_GRUPPO_C__49
  0
BLOCK_RECORD
  5
13A
330
1
100
AcDbSymbolTableRecord
100
AcDbBlockTableRecord
  2
GFS0060A00700_GRUPPO_C__50
  0
BLOCK_RECORD
  5
13E
330
1
100
AcDbSymbolTableRecord
100
AcDbBlockTableRecord
  2
00S0060A00100_CERNIERA__51
  0
BLOCK_RECORD
  5
142
330
1
100
AcDbSymbolTableRecord
100
AcDbBlockTableRecord
  2
SCASSO_PORTA_S0043_3__52
  0
BLOCK_RECORD
  5
145
330
1
100
AcDbSymbolTableRecord
100
AcDbBlockTableRecord
  2
PX004194_GRUPPO_N_3_SC__53
  0
BLOCK_RECORD
  5
149
330
1
100
AcDbSymbolTableRecord
100
AcDbBlockTableRecord
  2
FRESATE_CERNIERE_TELAI__54
  0
BLOCK_RECORD
  5
14D
330
1
100
AcDbSymbolTableRecord
100
AcDbBlockTableRecord
  2
PX000467_1__55
  0
BLOCK_RECORD
  5
150
330
1
100
AcDbSymbolTableRecord
100
AcDbBlockTableRecord
  2
PX000466_1__56
  0
BLOCK_RECORD
  5
153
330
1
100
AcDbSymbolTableRecord
100
AcDbBlockTableRecord
  2
CM06100A01100_MANIGLIA__57
  0
BLOCK_RECORD
  5
158
330
1
100
AcDbSymbolTableRecord
100
AcDbBlockTableRecord
  2
PX001595_PX001297_1187__58
  0
BLOCK_RECORD
  5
15B
330
1
100
AcDbSymbolTableRecord
100
AcDbBlockTableRecord
  2
PX001681_PANNELLO_1015__59
  0
BLOCK_RECORD
  5
15F
330
1
100
AcDbSymbolTableRecord
100
AcDbBlockTableRecord
  2
PX000466_1__60
  0
BLOCK_RECORD
  5
162
330
1
100
AcDbSymbolTableRecord
100
AcDbBlockTableRecord
  2
PX000467_1__61
  0
BLOCK_RECORD
  5
165
330
1
100
AcDbSymbolTableRecord
100
AcDbBlockTableRecord
  2
CM06100A01100_MANIGLIA__62
  0
BLOCK_RECORD
  5
16A
330
1
100
AcDbSymbolTableRecord
100
AcDbBlockTableRecord
  2
PANNELLO__63
  0
BLOCK_RECORD
  5
170
330
1
100
AcDbSymbolTableRecord
100
AcDbBlockTableRecord
  2
PX001593_GRUPPO_ANTA_L__64
  0
BLOCK_RECORD
  5
175
330
1
100
AcDbSymbolTableRecord
100
AcDbBlockTableRecord
  2
TKKZ0TEC43200_TECNICO___65
  0
BLOCK_RECORD
  5
17C
330
1
100
AcDbSymbolTableRecord
100
AcDbBlockTableRecord
  2
GEN7
  0
BLOCK_RECORD
  5
180
330
1
100
AcDbSymbolTableRecord
100
AcDbBlockTableRecord
  2
PX004198_STIPITE_MONTA__66
  0
BLOCK_RECORD
  5
183
330
1
100
AcDbSymbolTableRecord
100
AcDbBlockTableRecord
  2
SCASSO_MONTANTE_S0043___67
  0
BLOCK_RECORD
  5
186
330
1
100
AcDbSymbolTableRecord
100
AcDbBlockTableRecord
  2
PX004196_GRUPPO_N_3_SC__68
  0
BLOCK_RECORD
  5
18A
330
1
100
AcDbSymbolTableRecord
100
AcDbBlockTableRecord
  2
FRESATE_CERNIERE_TELAI__69
  0
BLOCK_RECORD
  5
18E
330
1
100
AcDbSymbolTableRecord
100
AcDbBlockTableRecord
  2
PX001697_STIPITE_MONTA__70
  0
BLOCK_RECORD
  5
191
330
1
100
AcDbSymbolTableRecord
100
AcDbBlockTableRecord
  2
TELAIO__71
  0
BLOCK_RECORD
  5
195
330
1
100
AcDbSymbolTableRecord
100
AcDbBlockTableRecord
  2
PX001692_TELAIO_BATTEN__72
  0
BLOCK_RECORD
  5
19A
330
1
100
AcDbSymbolTableRecord
100
AcDbBlockTableRecord
  2
PX007439_CORPO_REG_Y_C__73
  0
BLOCK_RECORD
  5
19D
330
1
100
AcDbSymbolTableRecord
100
AcDbBlockTableRecord
  2
PD00700A24600_CORPO_RE__74
  0
BLOCK_RECORD
  5
1A1
330
1
100
AcDbSymbolTableRecord
100
AcDbBlockTableRecord
  2
PX007446_BIELLA_INTERN__75
  0
BLOCK_RECORD
  5
1A4
330
1
100
AcDbSymbolTableRecord
100
AcDbBlockTableRecord
  2
PD05300A09200_BIELLA_I__76
  0
BLOCK_RECORD
  5
1A8
330
1
100
AcDbSymbolTableRecord
100
AcDbBlockTableRecord
  2
PX007445_BIELLA_INTERN__77
  0
BLOCK_RECORD
  5
1AB
330
1
100
AcDbSymbolTableRecord
100
AcDbBlockTableRecord
  2
PD05300A09100_BIELLA_I__78
  0
BLOCK_RECORD
  5
1AF
330
1
100
AcDbSymbolTableRecord
100
AcDbBlockTableRecord
  2
GFS0060A00100_GRUPPO_B__79
  0
BLOCK_RECORD
  5
1B4
330
1
100
AcDbSymbolTableRecord
100
AcDbBlockTableRecord
  2
GFS0060A00200_GRUPPO_B__80
  0
BLOCK_RECORD
  5
1B8
330
1
100
AcDbSymbolTableRecord
100
AcDbBlockTableRecord
  2
GFS0060A00300_GRUPPO_B__81
  0
BLOCK_RECORD
  5
1BD
330
1
100
AcDbSymbolTableRecord
100
AcDbBlockTableRecord
  2
GFS0060A00400_GRUPPO_B__82
  0
BLOCK_RECORD
  5
1C1
330
1
100
AcDbSymbolTableRecord
100
AcDbBlockTableRecord
  2
GFS0060A00500_GRUPPO_C__83
  0
BLOCK_RECORD
  5
1C5
330
1
100
AcDbSymbolTableRecord
100
AcDbBlockTableRecord
  2
GFS0060A00700_GRUPPO_C__84
  0
BLOCK_RECORD
  5
1C9
330
1
100
AcDbSymbolTableRecord
100
AcDbBlockTableRecord
  2
00S0060A00100_CERNIERA__85
  0
BLOCK_RECORD
  5
1CD
330
1
100
AcDbSymbolTableRecord
100
AcDbBlockTableRecord
  2
SCASSO_PORTA_S0043_3__86
  0
BLOCK_RECORD
  5
1D0
330
1
100
AcDbSymbolTableRecord
100
AcDbBlockTableRecord
  2
PX004194_GRUPPO_N_3_SC__87
  0
BLOCK_RECORD
  5
1D4
330
1
100
AcDbSymbolTableRecord
100
AcDbBlockTableRecord
  2
FRESATE_CERNIERE_TELAI__88
  0
BLOCK_RECORD
  5
1D8
330
1
100
AcDbSymbolTableRecord
100
AcDbBlockTableRecord
  2
PX000467_1__89
  0
BLOCK_RECORD
  5
1DB
330
1
100
AcDbSymbolTableRecord
100
AcDbBlockTableRecord
  2
PX000466_1__90
  0
BLOCK_RECORD
  5
1DE
330
1
100
AcDbSymbolTableRecord
100
AcDbBlockTableRecord
  2
CM06100A01100_MANIGLIA__91
  0
BLOCK_RECORD
  5
1E3
330
1
100
AcDbSymbolTableRecord
100
AcDbBlockTableRecord
  2
PX001595_PX001297_1187__92
  0
BLOCK_RECORD
  5
1E6
330
1
100
AcDbSymbolTableRecord
100
AcDbBlockTableRecord
  2
PX001681_PANNELLO_1015__93
  0
BLOCK_RECORD
  5
1EA
330
1
100
AcDbSymbolTableRecord
100
AcDbBlockTableRecord
  2
PX000466_1__94
  0
BLOCK_RECORD
  5
1ED
330
1
100
AcDbSymbolTableRecord
100
AcDbBlockTableRecord
  2
PX000467_1__95
  0
BLOCK_RECORD
  5
1F0
330
1
100
AcDbSymbolTableRecord
100
AcDbBlockTableRecord
  2
CM06100A01100_MANIGLIA__96
  0
BLOCK_RECORD
  5
1F5
330
1
100
AcDbSymbolTableRecord
100
AcDbBlockTableRecord
  2
PANNELLO__97
  0
BLOCK_RECORD
  5
1FB
330
1
100
AcDbSymbolTableRecord
100
AcDbBlockTableRecord
  2
PX001593_GRUPPO_ANTA_L__98
  0
BLOCK_RECORD
  5
200
330
1
100
AcDbSymbolTableRecord
100
AcDbBlockTableRecord
  2
TKKZ0TEC43200_TECNICO___99
  0
BLOCK_RECORD
  5
207
330
1
100
AcDbSymbolTableRecord
100
AcDbBlockTableRecord
  2
GEN8
  0
BLOCK_RECORD
  5
20B
330
1
100
AcDbSymbolTableRecord
100
AcDbBlockTableRecord
  2
PX007439_CORPO_REG_Y_C_100
  0
BLOCK_RECORD
  5
20E
330
1
100
AcDbSymbolTableRecord
100
AcDbBlockTableRecord
  2
PD00700A24600_CORPO_RE_101
  0
BLOCK_RECORD
  5
212
330
1
100
AcDbSymbolTableRecord
100
AcDbBlockTableRecord
  2
PX007445_BIELLA_INTERN_102
  0
BLOCK_RECORD
  5
215
330
1
100
AcDbSymbolTableRecord
100
AcDbBlockTableRecord
  2
PD05300A09100_BIELLA_I_103
  0
BLOCK_RECORD
  5
219
330
1
100
AcDbSymbolTableRecord
100
AcDbBlockTableRecord
  2
PX007446_BIELLA_INTERN_104
  0
BLOCK_RECORD
  5
21C
330
1
100
AcDbSymbolTableRecord
100
AcDbBlockTableRecord
  2
PD05300A09200_BIELLA_I_105
  0
BLOCK_RECORD
  5
220
330
1
100
AcDbSymbolTableRecord
100
AcDbBlockTableRecord
  2
GFS0060A00100_GRUPPO_B_106
  0
BLOCK_RECORD
  5
225
330
1
100
AcDbSymbolTableRecord
100
AcDbBlockTableRecord
  2
GFS0060A00200_GRUPPO_B_107
  0
BLOCK_RECORD
  5
229
330
1
100
AcDbSymbolTableRecord
100
AcDbBlockTableRecord
  2
GFS0060A00300_GRUPPO_B_108
  0
BLOCK_RECORD
  5
22E
330
1
100
AcDbSymbolTableRecord
100
AcDbBlockTableRecord
  2
GFS0060A00400_GRUPPO_B_109
  0
BLOCK_RECORD
  5
232
330
1
100
AcDbSymbolTableRecord
100
AcDbBlockTableRecord
  2
GFS0060A00500_GRUPPO_C_110
  0
BLOCK_RECORD
  5
236
330
1
100
AcDbSymbolTableRecord
100
AcDbBlockTableRecord
  2
GFS0060A00700_GRUPPO_C_111
  0
BLOCK_RECORD
  5
23A
330
1
100
AcDbSymbolTableRecord
100
AcDbBlockTableRecord
  2
00S0060A00100_CERNIERA_112
  0
BLOCK_RECORD
  5
23E
330
1
100
AcDbSymbolTableRecord
100
AcDbBlockTableRecord
  2
PX001697_STIPITE_MONTA_113
  0
BLOCK_RECORD
  5
241
330
1
100
AcDbSymbolTableRecord
100
AcDbBlockTableRecord
  2
TELAIO__114
  0
BLOCK_RECORD
  5
245
330
1
100
AcDbSymbolTableRecord
100
AcDbBlockTableRecord
  2
SCASSO_MONTANTE_S0043__115
  0
BLOCK_RECORD
  5
248
330
1
100
AcDbSymbolTableRecord
100
AcDbBlockTableRecord
  2
PX004196_GRUPPO_N_3_SC_116
  0
BLOCK_RECORD
  5
24C
330
1
100
AcDbSymbolTableRecord
100
AcDbBlockTableRecord
  2
FRESATE_CERNIERE_TELAI_117
  0
BLOCK_RECORD
  5
250
330
1
100
AcDbSymbolTableRecord
100
AcDbBlockTableRecord
  2
PX001692_TELAIO_BATTEN_118
  0
BLOCK_RECORD
  5
255
330
1
100
AcDbSymbolTableRecord
100
AcDbBlockTableRecord
  2
PX004198_STIPITE_MONTA_119
  0
BLOCK_RECORD
  5
258
330
1
100
AcDbSymbolTableRecord
100
AcDbBlockTableRecord
  2
SCASSO_PORTA_S0043_3__120
  0
BLOCK_RECORD
  5
25B
330
1
100
AcDbSymbolTableRecord
100
AcDbBlockTableRecord
  2
PX004194_GRUPPO_N_3_SC_121
  0
BLOCK_RECORD
  5
25F
330
1
100
AcDbSymbolTableRecord
100
AcDbBlockTableRecord
  2
FRESATE_CERNIERE_TELAI_122
  0
BLOCK_RECORD
  5
263
330
1
100
AcDbSymbolTableRecord
100
AcDbBlockTableRecord
  2
PX000466_1__123
  0
BLOCK_RECORD
  5
266
330
1
100
AcDbSymbolTableRecord
100
AcDbBlockTableRecord
  2
PX000467_1__124
  0
BLOCK_RECORD
  5
269
330
1
100
AcDbSymbolTableRecord
100
AcDbBlockTableRecord
  2
CM06100A01100_MANIGLIA_125
  0
BLOCK_RECORD
  5
26E
330
1
100
AcDbSymbolTableRecord
100
AcDbBlockTableRecord
  2
PX000467_1__126
  0
BLOCK_RECORD
  5
271
330
1
100
AcDbSymbolTableRecord
100
AcDbBlockTableRecord
  2
PX000466_1__127
  0
BLOCK_RECORD
  5
274
330
1
100
AcDbSymbolTableRecord
100
AcDbBlockTableRecord
  2
CM06100A01100_MANIGLIA_128
  0
BLOCK_RECORD
  5
279
330
1
100
AcDbSymbolTableRecord
100
AcDbBlockTableRecord
  2
PX001595_PX001297_1187_129
  0
BLOCK_RECORD
  5
27C
330
1
100
AcDbSymbolTableRecord
100
AcDbBlockTableRecord
  2
PX001681_PANNELLO_1015_130
  0
BLOCK_RECORD
  5
280
330
1
100
AcDbSymbolTableRecord
100
AcDbBlockTableRecord
  2
PANNELLO__131
  0
BLOCK_RECORD
  5
286
330
1
100
AcDbSymbolTableRecord
100
AcDbBlockTableRecord
  2
PX001593_GRUPPO_ANTA_L_132
  0
BLOCK_RECORD
  5
28B
330
1
100
AcDbSymbolTableRecord
100
AcDbBlockTableRecord
  2
TKKZ0TEC43200_TECNICO__133
  0
BLOCK_RECORD
  5
292
330
1
100
AcDbSymbolTableRecord
100
AcDbBlockTableRecord
  2
GEN9
  0
BLOCK_RECORD
  5
296
330
1
100
AcDbSymbolTableRecord
100
AcDbBlockTableRecord
  2
PX004198_STIPITE_MONTA_134
  0
BLOCK_RECORD
  5
299
330
1
100
AcDbSymbolTableRecord
100
AcDbBlockTableRecord
  2
PX001697_STIPITE_MONTA_135
  0
BLOCK_RECORD
  5
29C
330
1
100
AcDbSymbolTableRecord
100
AcDbBlockTableRecord
  2
TELAIO__136
  0
BLOCK_RECORD
  5
2A0
330
1
100
AcDbSymbolTableRecord
100
AcDbBlockTableRecord
  2
SCASSO_MONTANTE_S0043__137
  0
BLOCK_RECORD
  5
2A3
330
1
100
AcDbSymbolTableRecord
100
AcDbBlockTableRecord
  2
PX004196_GRUPPO_N_3_SC_138
  0
BLOCK_RECORD
  5
2A7
330
1
100
AcDbSymbolTableRecord
100
AcDbBlockTableRecord
  2
FRESATE_CERNIERE_TELAI_139
  0
BLOCK_RECORD
  5
2AB
330
1
100
AcDbSymbolTableRecord
100
AcDbBlockTableRecord
  2
PX001692_TELAIO_BATTEN_140
  0
BLOCK_RECORD
  5
2B0
330
1
100
AcDbSymbolTableRecord
100
AcDbBlockTableRecord
  2
SCASSO_PORTA_S0043_3__141
  0
BLOCK_RECORD
  5
2B3
330
1
100
AcDbSymbolTableRecord
100
AcDbBlockTableRecord
  2
PX004194_GRUPPO_N_3_SC_142
  0
BLOCK_RECORD
  5
2B7
330
1
100
AcDbSymbolTableRecord
100
AcDbBlockTableRecord
  2
FRESATE_CERNIERE_TELAI_143
  0
BLOCK_RECORD
  5
2BB
330
1
100
AcDbSymbolTableRecord
100
AcDbBlockTableRecord
  2
PX000466_1__144
  0
BLOCK_RECORD
  5
2BE
330
1
100
AcDbSymbolTableRecord
100
AcDbBlockTableRecord
  2
PX000467_1__145
  0
BLOCK_RECORD
  5
2C1
330
1
100
AcDbSymbolTableRecord
100
AcDbBlockTableRecord
  2
CM06100A01100_MANIGLIA_146
  0
BLOCK_RECORD
  5
2C6
330
1
100
AcDbSymbolTableRecord
100
AcDbBlockTableRecord
  2
PX001595_PX001297_1187_147
  0
BLOCK_RECORD
  5
2C9
330
1
100
AcDbSymbolTableRecord
100
AcDbBlockTableRecord
  2
PX001681_PANNELLO_1015_148
  0
BLOCK_RECORD
  5
2CD
330
1
100
AcDbSymbolTableRecord
100
AcDbBlockTableRecord
  2
PX000466_1__149
  0
BLOCK_RECORD
  5
2D0
330
1
100
AcDbSymbolTableRecord
100
AcDbBlockTableRecord
  2
PX000467_1__150
  0
BLOCK_RECORD
  5
2D3
330
1
100
AcDbSymbolTableRecord
100
AcDbBlockTableRecord
  2
CM06100A01100_MANIGLIA_151
  0
BLOCK_RECORD
  5
2D8
330
1
100
AcDbSymbolTableRecord
100
AcDbBlockTableRecord
  2
PANNELLO__152
  0
BLOCK_RECORD
  5
2DE
330
1
100
AcDbSymbolTableRecord
100
AcDbBlockTableRecord
  2
PX001593_GRUPPO_ANTA_L_153
  0
BLOCK_RECORD
  5
2E3
330
1
100
AcDbSymbolTableRecord
100
AcDbBlockTableRecord
  2
TKKZ0TEC43200_TECNICO__154
  0
BLOCK_RECORD
  5
2E9
330
1
100
AcDbSymbolTableRecord
100
AcDbBlockTableRecord
  2
GEN11
  0
BLOCK_RECORD
  5
2ED
330
1
100
AcDbSymbolTableRecord
100
AcDbBlockTableRecord
  2
_TECNICI__155
  0
BLOCK_RECORD
  5
3B9
330
1
100
AcDbSymbolTableRecord
100
AcDbBlockTableRecord
  2
*D161
  0
BLOCK_RECORD
  5
44B
330
1
100
AcDbSymbolTableRecord
100
AcDbBlockTableRecord
  2
*D162
  0
BLOCK_RECORD
  5
458
330
1
100
AcDbSymbolTableRecord
100
AcDbBlockTableRecord
  2
*D163
  0
BLOCK_RECORD
  5
4EB
330
1
100
AcDbSymbolTableRecord
100
AcDbBlockTableRecord
  2
*D164
  0
BLOCK_RECORD
  5
4F8
330
1
100
AcDbSymbolTableRecord
100
AcDbBlockTableRecord
  2
*D165
  0
BLOCK_RECORD
  5
57C
330
1
100
AcDbSymbolTableRecord
100
AcDbBlockTableRecord
  2
*D166
  0
BLOCK_RECORD
  5
5D4
330
1
100
AcDbSymbolTableRecord
100
AcDbBlockTableRecord
  2
*D167
  0
BLOCK_RECORD
  5
5DF
330
1
100
AcDbSymbolTableRecord
100
AcDbBlockTableRecord
  2
*D168
  0
ENDTAB
  0
ENDSEC
  0
SECTION
  2
BLOCKS
  0
BLOCK
  5
20
330
1F
100
AcDbEntity
  8
0
100
AcDbBlockBegin
  2
*MODEL_SPACE
 70
     0
 10
0.0
 20
0.0
 30
0.0
  3
*MODEL_SPACE
  1

  0
ENDBLK
  5
21
330
1F
100
AcDbEntity
  8
0
100
AcDbBlockEnd
  0
BLOCK
  5
1C
330
1B
100
AcDbEntity
 67
     1
  8
0
100
AcDbBlockBegin
  2
*PAPER_SPACE
 70
     0
 10
0.0
 20
0.0
 30
0.0
  3
*PAPER_SPACE
  1

  0
ENDBLK
  5
1D
330
1B
100
AcDbEntity
 67
     1
  8
0
100
AcDbBlockEnd
  0
BLOCK
  5
77
330
76
100
AcDbEntity
  8
0
100
AcDbBlockBegin
  2
PX004198_STIPITE_MONTA1__1
 70
     0
 10
-878.6969323913818
 20
-651.630279040779
 30
0.0
  3
PX004198_STIPITE_MONTA1__1
  1

  0
LINE
  5
2F6
330
76
100
AcDbEntity
  8
0
  6
CONTINUOUS
 62
     7
100
AcDbLine
 10
-831.6969323913818
 20
-599.630279040779
 30
0.0
 11
-831.6969323913818
 21
-561.630279040779
 31
0.0
  0
LINE
  5
2F7
330
76
100
AcDbEntity
  8
0
  6
CONTINUOUS
 62
     7
100
AcDbLine
 10
-833.6969323913818
 20
-601.630279040779
 30
0.0
 11
-832.9315591757768
 21
-601.4780385822751
 31
0.0
  0
LINE
  5
2F8
330
76
100
AcDbEntity
  8
0
  6
CONTINUOUS
 62
     7
100
AcDbLine
 10
-832.9315591757768
 20
-601.4780385822751
 30
0.0
 11
-832.2827249472612
 21
-601.0444925159909
 31
0.0
  0
LINE
  5
2F9
330
76
100
AcDbEntity
  8
0
  6
CONTINUOUS
 62
     7
100
AcDbLine
 10
-832.2827249472612
 20
-601.0444925159909
 30
0.0
 11
-831.8491617148393
 21
-600.3956449360348
 31
0.0
  0
LINE
  5
2FA
330
76
100
AcDbEntity
  8
0
  6
CONTINUOUS
 62
     7
100
AcDbLine
 10
-831.8491617148393
 20
-600.3956449360348
 30
0.0
 11
-831.6969323913818
 21
-599.630279040779
 31
0.0
  0
LINE
  5
2FB
330
76
100
AcDbEntity
  8
0
  6
CONTINUOUS
 62
     7
100
AcDbLine
 10
-842.6969323913818
 20
-601.630279040779
 30
0.0
 11
-833.6969323913818
 21
-601.630279040779
 31
0.0
  0
LINE
  5
2FC
330
76
100
AcDbEntity
  8
0
  6
CONTINUOUS
 62
     7
100
AcDbLine
 10
-842.6969323913818
 20
-601.630279040779
 30
0.0
 11
-842.6969323913818
 21
-649.630279040779
 31
0.0
  0
LINE
  5
2FD
330
76
100
AcDbEntity
  8
0
  6
CONTINUOUS
 62
     7
100
AcDbLine
 10
-844.6969323913818
 20
-651.630279040779
 30
0.0
 11
-844.6454263632768
 21
-651.6296155781247
 31
0.0
  0
LINE
  5
2FE
330
76
100
AcDbEntity
  8
0
  6
CONTINUOUS
 62
     7
100
AcDbLine
 10
-844.6454263632768
 20
-651.6296155781247
 30
0.0
 11
-844.440165132808
 21
-651.6137235493161
 31
0.0
  0
LINE
  5
2FF
330
76
100
AcDbEntity
  8
0
  6
CONTINUOUS
 62
     7
100
AcDbLine
 10
-844.440165132808
 20
-651.6137235493161
 30
0.0
 11
-844.237528414058
 21
-651.5768087238766
 31
0.0
  0
LINE
  5
300
330
76
100
AcDbEntity
  8
0
  6
CONTINUOUS
 62
     7
100
AcDbLine
 10
-844.237528414058
 20
-651.5768087238766
 30
0.0
 11
-844.0398355429643
 21
-651.5192563862302
 31
0.0
  0
LINE
  5
301
330
76
100
AcDbEntity
  8
0
  6
CONTINUOUS
 62
     7
100
AcDbLine
 10
-844.0398355429643
 20
-651.5192563862302
 30
0.0
 11
-843.849100679683
 21
-651.4416845173337
 31
0.0
  0
LINE
  5
302
330
76
100
AcDbEntity
  8
0
  6
CONTINUOUS
 62
     7
100
AcDbLine
 10
-843.849100679683
 20
-651.4416845173337
 30
0.0
 11
-843.6673379843705
 21
-651.344909462402
 31
0.0
  0
LINE
  5
303
330
76
100
AcDbEntity
  8
0
  6
CONTINUOUS
 62
     7
100
AcDbLine
 10
-843.6673379843705
 20
-651.344909462402
 30
0.0
 11
-843.4965005820268
 21
-651.2299573749997
 31
0.0
  0
LINE
  5
304
330
76
100
AcDbEntity
  8
0
  6
CONTINUOUS
 62
     7
100
AcDbLine
 10
-843.4965005820268
 20
-651.2299573749997
 30
0.0
 11
-843.3383890097612
 21
-651.0980489582516
 31
0.0
  0
LINE
  5
305
330
76
100
AcDbEntity
  8
0
  6
CONTINUOUS
 62
     7
100
AcDbLine
 10
-843.3383890097612
 20
-651.0980489582516
 30
0.0
 11
-843.1946817343705
 21
-650.9505842060544
 31
0.0
  0
LINE
  5
306
330
76
100
AcDbEntity
  8
0
  6
CONTINUOUS
 62
     7
100
AcDbLine
 10
-843.1946817343705
 20
-650.9505842060544
 30
0.0
 11
-843.066874117183
 21
-650.7891195148932
 31
0.0
  0
LINE
  5
307
330
76
100
AcDbEntity
  8
0
  6
CONTINUOUS
 62
     7
100
AcDbLine
 10
-843.066874117183
 20
-650.7891195148932
 30
0.0
 11
-842.9563699667924
 21
-650.6153753132321
 31
0.0
  0
LINE
  5
308
330
76
100
AcDbEntity
  8
0
  6
CONTINUOUS
 62
     7
100
AcDbLine
 10
-842.9563699667924
 20
-650.6153753132321
 30
0.0
 11
-842.8642984335893
 21
-650.4311864704587
 31
0.0
  0
LINE
  5
309
330
76
100
AcDbEntity
  8
0
  6
CONTINUOUS
 62
     7
100
AcDbLine
 10
-842.8642984335893
 20
-650.4311864704587
 30
0.0
 11
-842.7916665976518
 21
-650.2385099262683
 31
0.0
  0
LINE
  5
30A
330
76
100
AcDbEntity
  8
0
  6
CONTINUOUS
 62
     7
100
AcDbLine
 10
-842.7916665976518
 20
-650.2385099262683
 30
0.0
 11
-842.739237398433
 21
-650.0393827290036
 31
0.0
  0
LINE
  5
30B
330
76
100
AcDbEntity
  8
0
  6
CONTINUOUS
 62
     7
100
AcDbLine
 10
-842.739237398433
 20
-650.0393827290036
 30
0.0
 11
-842.7075296347612
 21
-649.8359220356433
 31
0.0
  0
LINE
  5
30C
330
76
100
AcDbEntity
  8
0
  6
CONTINUOUS
 62
     7
100
AcDbLine
 10
-842.7075296347612
 20
-649.8359220356433
 30
0.0
 11
-842.6969323913818
 21
-649.630279040779
 31
0.0
  0
LINE
  5
30D
330
76
100
AcDbEntity
  8
0
  6
CONTINUOUS
 62
     7
100
AcDbLine
 10
-844.6969323913818
 20
-651.630279040779
 30
0.0
 11
-878.6969323913818
 21
-651.630279040779
 31
0.0
  0
LINE
  5
30E
330
76
100
AcDbEntity
  8
0
  6
CONTINUOUS
 62
     7
100
AcDbLine
 10
-878.6969323913818
 20
-561.630279040779
 30
0.0
 11
-878.6969323913818
 21
-651.630279040779
 31
0.0
  0
LINE
  5
30F
330
76
100
AcDbEntity
  8
0
  6
CONTINUOUS
 62
     7
100
AcDbLine
 10
-878.6969323913818
 20
-561.630279040779
 30
0.0
 11
-831.6969323913818
 21
-561.630279040779
 31
0.0
  0
ENDBLK
  5
78
330
76
100
AcDbEntity
  8
0
100
AcDbBlockEnd
  0
BLOCK
  5
7A
330
79
100
AcDbEntity
  8
0
100
AcDbBlockBegin
  2
PX007439_CORPO_REG_Y_C0__2
 70
     0
 10
-842.6969400394173
 20
-645.4460650690062
 30
0.0
  3
PX007439_CORPO_REG_Y_C0__2
  1

  0
LINE
  5
310
330
79
100
AcDbEntity
  8
0
  6
CONTINUOUS
 62
     7
100
AcDbLine
 10
-842.321932227871
 20
-644.3302790429861
 30
0.0
 11
-842.321932227871
 21
-639.3302790429861
 31
0.0
  0
LINE
  5
311
330
79
100
AcDbEntity
  8
0
  6
CONTINUOUS
 62
     7
100
AcDbLine
 10
-842.69693978953
 20
-638.2024150728475
 30
0.0
 11
-842.4005227988237
 21
-638.7751601070859
 31
0.0
  0
LINE
  5
312
330
79
100
AcDbEntity
  8
0
  6
CONTINUOUS
 62
     7
100
AcDbLine
 10
-842.4005227988237
 20
-638.7751601070859
 30
0.0
 11
-842.321932227871
 21
-639.3302790429861
 31
0.0
  0
LINE
  5
313
330
79
100
AcDbEntity
  8
0
  6
CONTINUOUS
 62
     7
100
AcDbLine
 10
-842.5707498496049
 20
-645.2963979572751
 30
0.0
 11
-842.6969400394173
 21
-645.4460650690062
 31
0.0
  0
ARC
  5
314
330
79
100
AcDbEntity
  8
0
  6
CONTINUOUS
 62
     7
100
AcDbCircle
 10
-844.3219322278273
 20
-644.3302922290013
 30
0.0
 40
2.000000000000042
100
AcDbArc
 50
331.1150200551476
 51
0.00037775150883
  0
ENDBLK
  5
7B
330
79
100
AcDbEntity
  8
0
100
AcDbBlockEnd
  0
BLOCK
  5
7E
330
7C
100
AcDbEntity
  8
0
100
AcDbBlockBegin
  2
PD00700A24600_CORPO_RE0__3
 70
     0
 10
-842.6969400394173
 20
-645.4460650690062
 30
0.0
  3
PD00700A24600_CORPO_RE0__3
  1

  0
INSERT
  5
7D
330
7C
100
AcDbEntity
  8
0
100
AcDbBlockReference
  2
PX007439_CORPO_REG_Y_C0__2
 10
-842.6969400394173
 20
-645.4460650690062
 30
0.0
  0
ENDBLK
  5
7F
330
7C
100
AcDbEntity
  8
0
100
AcDbBlockEnd
  0
BLOCK
  5
81
330
80
100
AcDbEntity
  8
0
100
AcDbBlockBegin
  2
PX007446_BIELLA_INTERN0__4
 70
     0
 10
-842.6969521547835
 20
-669.9103076528836
 30
0.0
  3
PX007446_BIELLA_INTERN0__4
  1

  0
LINE
  5
315
330
80
100
AcDbEntity
  8
0
  6
CONTINUOUS
 62
     1
100
AcDbLine
 10
-826.5705095061876
 20
-659.2555672613862
 30
0.0
 11
-825.1690774863237
 21
-659.4363630146481
 31
0.0
  0
LINE
  5
316
330
80
100
AcDbEntity
  8
0
  6
CONTINUOUS
 62
     1
100
AcDbLine
 10
-825.1690774863237
 20
-659.4363630146481
 30
0.0
 11
-824.8840372363629
 21
-659.473137899673
 31
0.0
  0
LINE
  5
317
330
80
100
AcDbEntity
  8
0
  6
CONTINUOUS
 62
     1
100
AcDbLine
 10
-826.5705095061876
 20
-659.2555672613862
 30
0.0
 11
-824.8703462271023
 21
-659.2867204953482
 31
0.0
  0
LINE
  5
318
330
80
100
AcDbEntity
  8
0
  6
CONTINUOUS
 62
     7
100
AcDbLine
 10
-824.8840372363629
 20
-659.473137899673
 30
0.0
 11
-824.8778787558549
 21
-659.4267862171628
 31
0.0
  0
LINE
  5
319
330
80
100
AcDbEntity
  8
0
  6
CONTINUOUS
 62
     7
100
AcDbLine
 10
-824.8778787558549
 20
-659.4267862171628
 30
0.0
 11
-824.8735452597612
 21
-659.3801954121091
 31
0.0
  0
LINE
  5
31A
330
80
100
AcDbEntity
  8
0
  6
CONTINUOUS
 62
     7
100
AcDbLine
 10
-824.8735452597612
 20
-659.3801954121091
 30
0.0
 11
-824.8710428183549
 21
-659.333471092651
 31
0.0
  0
LINE
  5
31B
330
80
100
AcDbEntity
  8
0
  6
CONTINUOUS
 62
     7
100
AcDbLine
 10
-824.8710428183549
 20
-659.333471092651
 30
0.0
 11
-824.8703462271023
 21
-659.2867204953482
 31
0.0
  0
LINE
  5
31C
330
80
100
AcDbEntity
  8
0
  6
CONTINUOUS
 62
     7
100
AcDbLine
 10
-826.4750560591183
 20
-669.9103076528836
 30
0.0
 11
-824.8840372363629
 21
-659.473137899673
 31
0.0
  0
LINE
  5
31D
330
80
100
AcDbEntity
  8
0
  6
CONTINUOUS
 62
     1
100
AcDbLine
 10
-827.967231783552
 20
-668.418141140739
 30
0.0
 11
-826.5705095061876
 21
-659.2555672613862
 31
0.0
  0
LINE
  5
31E
330
80
100
AcDbEntity
  8
0
  6
CONTINUOUS
 62
     7
100
AcDbLine
 10
-829.6900713361083
 20
-660.2612132166068
 30
0.0
 11
-830.3415740041219
 21
-666.043794825563
 31
0.0
  0
LINE
  5
31F
330
80
100
AcDbEntity
  8
0
  6
CONTINUOUS
 62
     7
100
AcDbLine
 10
-831.2881528972048
 20
-656.0490866107248
 30
0.0
 11
-830.0020167441908
 21
-658.5558841599268
 31
0.0
  0
LINE
  5
320
330
80
100
AcDbEntity
  8
0
  6
CONTINUOUS
 62
     1
100
AcDbLine
 10
-839.0938726782242
 20
-645.6430399994233
 30
0.0
 11
-839.0021474116638
 21
-645.537299767263
 31
0.0
  0
LINE
  5
321
330
80
100
AcDbEntity
  8
0
  6
CONTINUOUS
 62
     7
100
AcDbLine
 10
-842.5402086647518
 20
-645.2003356630712
 30
0.0
 11
-841.2108521042446
 21
-644.518296727274
 31
0.0
  0
LINE
  5
322
330
80
100
AcDbEntity
  8
0
  6
CONTINUOUS
 62
     7
100
AcDbLine
 10
-835.9041941151463
 20
-651.5754817582456
 30
0.0
 11
-839.1915279731002
 21
-645.1681659859523
 31
0.0
  0
LINE
  5
323
330
80
100
AcDbEntity
  8
0
  6
CONTINUOUS
 62
     7
100
AcDbLine
 10
-840.5549029312533
 20
-644.3756589286895
 30
0.0
 11
-839.0938726782242
 21
-645.6430399994233
 31
0.0
  0
LINE
  5
324
330
80
100
AcDbEntity
  8
0
  6
CONTINUOUS
 62
     1
100
AcDbLine
 10
-841.6220712777522
 20
-637.8732728159875
 30
0.0
 11
-842.6060112647883
 21
-638.3780925171732
 31
0.0
  0
LINE
  5
325
330
80
100
AcDbEntity
  8
0
  6
CONTINUOUS
 62
     7
100
AcDbLine
 10
-842.3980957054828
 20
-636.3607298950874
 30
0.0
 11
-842.6969521547835
 21
-636.5140610183498
 31
0.0
  0
LINE
  5
326
330
80
100
AcDbEntity
  8
0
  6
CONTINUOUS
 62
     1
100
AcDbLine
 10
-841.6220712777522
 20
-637.8732728159875
 30
0.0
 11
-842.3980957054828
 21
-636.3607298950874
 31
0.0
  0
LINE
  5
327
330
80
100
AcDbEntity
  8
0
  6
CONTINUOUS
 62
     1
100
AcDbLine
 10
-840.0151795738166
 20
-637.9582911301077
 30
0.0
 11
-839.0838815661155
 21
-636.5360801679608
 31
0.0
  0
LINE
  5
328
330
80
100
AcDbEntity
  8
0
  6
CONTINUOUS
 62
     1
100
AcDbLine
 10
-828.0002775232169
 20
-645.8259385046968
 30
0.0
 11
-840.0151795738166
 21
-637.9582911301077
 31
0.0
  0
LINE
  5
329
330
80
100
AcDbEntity
  8
0
  6
CONTINUOUS
 62
     7
100
AcDbLine
 10
-827.068979515514
 20
-644.4037275425499
 30
0.0
 11
-839.0838815661155
 21
-636.5360801679608
 31
0.0
  0
LINE
  5
32A
330
80
100
AcDbEntity
  8
0
  6
CONTINUOUS
 62
     7
100
AcDbLine
 10
-824.8703462271023
 20
-659.2867204953482
 30
0.0
 11
-824.9211870873278
 21
-648.3554604655874
 31
0.0
  0
LINE
  5
32B
330
80
100
AcDbEntity
  8
0
  6
CONTINUOUS
 62
     1
100
AcDbLine
 10
-826.5705095061876
 20
-659.2555672613862
 30
0.0
 11
-826.6211687009072
 21
-648.363367013174
 31
0.0
  0
LINE
  5
32C
330
80
100
AcDbEntity
  8
0
  6
CONTINUOUS
 62
     1
100
AcDbLine
 10
-828.0002775232169
 20
-645.8259385046968
 30
0.0
 11
-827.068979515514
 21
-644.4037275425499
 31
0.0
  0
LINE
  5
32D
330
80
100
AcDbEntity
  8
0
  6
CONTINUOUS
 62
     1
100
AcDbLine
 10
-826.6211687009072
 20
-648.363367013174
 30
0.0
 11
-824.9211870873278
 21
-648.3554604655874
 31
0.0
  0
ARC
  5
32E
330
80
100
AcDbEntity
  8
0
  6
CONTINUOUS
 62
     7
100
AcDbCircle
 10
-832.6712101340145
 20
-659.9253390323938
 30
0.0
 40
3.000000000000368
100
AcDbArc
 50
353.5717984320794
 51
27.16051977943069
  0
ARC
  5
32F
330
80
100
AcDbEntity
  8
0
  6
CONTINUOUS
 62
     7
100
AcDbCircle
 10
-840.5261246680129
 20
-645.8528934221858
 30
0.0
 40
1.500000000000997
100
AcDbArc
 50
27.16051977941483
 51
117.1605197793689
  0
ARC
  5
330
330
80
100
AcDbEntity
  8
0
  6
CONTINUOUS
 62
     7
100
AcDbCircle
 10
-840.273361287891
 20
-647.0027482841897
 30
0.0
 40
1.799999999998615
100
AcDbArc
 50
27.16051977948301
 51
49.05976407773073
  0
ARC
  5
331
330
80
100
AcDbEntity
  8
0
  6
CONTINUOUS
 62
     1
100
AcDbCircle
 10
-840.8916953457701
 20
-639.296842623894
 30
0.0
 40
1.600000000000299
100
AcDbArc
 50
56.78225451538648
 51
117.1605197794112
  0
ARC
  5
332
330
80
100
AcDbEntity
  8
0
  6
CONTINUOUS
 62
     7
100
AcDbCircle
 10
-840.891695345772
 20
-639.2968426238931
 30
0.0
 40
3.300000000000198
100
AcDbArc
 50
56.78225451533453
 51
117.1605197793886
  0
ARC
  5
333
330
80
100
AcDbEntity
  8
0
  6
CONTINUOUS
 62
     7
100
AcDbCircle
 10
-833.9573462870267
 20
-657.4185414831927
 30
0.0
 40
2.999999999999172
100
AcDbArc
 50
27.160519779462
 51
64.63500331033211
  0
ARC
  5
334
330
80
100
AcDbEntity
  8
0
  6
CONTINUOUS
 62
     7
100
AcDbCircle
 10
-829.6711357135027
 20
-648.3775522897258
 30
0.0
 40
7.005552792173265
100
AcDbArc
 50
207.1605197794116
 51
244.6350033102983
  0
ARC
  5
335
330
80
100
AcDbEntity
  8
0
  6
CONTINUOUS
 62
     1
100
AcDbCircle
 10
-829.6711357135027
 20
-648.3775522897258
 30
0.0
 40
3.049999999998635
100
AcDbArc
 50
0.26647849435904
 51
56.78225451538579
  0
ARC
  5
336
330
80
100
AcDbEntity
  8
0
  6
CONTINUOUS
 62
     7
100
AcDbCircle
 10
-829.6711357135027
 20
-648.3775522897258
 30
0.0
 40
4.749999999999485
100
AcDbArc
 50
0.26647849436236
 51
56.78225451535596
  0
ENDBLK
  5
82
330
80
100
AcDbEntity
  8
0
100
AcDbBlockEnd
  0
BLOCK
  5
85
330
83
100
AcDbEntity
  8
0
100
AcDbBlockBegin
  2
PD05300A09200_BIELLA_I1__5
 70
     0
 10
-842.6969521547835
 20
-669.9103076528836
 30
0.0
  3
PD05300A09200_BIELLA_I1__5
  1

  0
INSERT
  5
84
330
83
100
AcDbEntity
  8
0
100
AcDbBlockReference
  2
PX007446_BIELLA_INTERN0__4
 10
-842.6969521547835
 20
-669.9103076528836
 30
0.0
  0
ENDBLK
  5
86
330
83
100
AcDbEntity
  8
0
100
AcDbBlockEnd
  0
BLOCK
  5
88
330
87
100
AcDbEntity
  8
0
100
AcDbBlockBegin
  2
PX007445_BIELLA_INTERN0__6
 70
     0
 10
-842.6969514074899
 20
-665.4429025753261
 30
0.0
  3
PX007445_BIELLA_INTERN0__6
  1

  0
LINE
  5
337
330
87
100
AcDbEntity
  8
0
  6
CONTINUOUS
 62
     7
100
AcDbLine
 10
-831.9053269085034
 20
-660.0385048354492
 30
0.0
 11
-832.9305113953051
 21
-663.454869951539
 31
0.0
  0
LINE
  5
338
330
87
100
AcDbEntity
  8
0
  6
CONTINUOUS
 62
     1
100
AcDbLine
 10
-830.7559608286247
 20
-660.3834071613746
 30
0.0
 11
-831.9668300923513
 21
-664.4185555332006
 31
0.0
  0
LINE
  5
339
330
87
100
AcDbEntity
  8
0
  6
CONTINUOUS
 62
     1
100
AcDbLine
 10
-833.6341911952932
 20
-659.8851221874465
 30
0.0
 11
-834.295725762051
 21
-662.0896460034701
 31
0.0
  0
LINE
  5
33A
330
87
100
AcDbEntity
  8
0
  6
CONTINUOUS
 62
     1
100
AcDbLine
 10
-830.9424757843026
 20
-665.4429025753261
 30
0.0
 11
-830.2502021378659
 21
-665.2327684549618
 31
0.0
  0
LINE
  5
33B
330
87
100
AcDbEntity
  8
0
  6
CONTINUOUS
 62
     7
100
AcDbLine
 10
-831.492025346608
 20
-657.6673039908992
 30
0.0
 11
-831.4338882109787
 21
-657.9631731113741
 31
0.0
  0
LINE
  5
33C
330
87
100
AcDbEntity
  8
0
  6
CONTINUOUS
 62
     1
100
AcDbLine
 10
-830.8377416840594
 20
-657.7822176081781
 30
0.0
 11
-831.4338882109787
 21
-657.9631731113741
 31
0.0
  0
LINE
  5
33D
330
87
100
AcDbEntity
  8
0
  6
CONTINUOUS
 62
     7
100
AcDbLine
 10
-833.6341911952932
 20
-659.8851221874465
 30
0.0
 11
-835.8328601134453
 21
-660.5525105265224
 31
0.0
  0
LINE
  5
33E
330
87
100
AcDbEntity
  8
0
  6
CONTINUOUS
 62
     7
100
AcDbLine
 10
-831.492025346608
 20
-657.6673039908992
 30
0.0
 11
-832.3167128476089
 21
-654.9504228746509
 31
0.0
  0
LINE
  5
33F
330
87
100
AcDbEntity
  8
0
  6
CONTINUOUS
 62
     7
100
AcDbLine
 10
-831.9053269085034
 20
-660.0385048354492
 30
0.0
 11
-831.8232522910112
 21
-659.686633858154
 31
0.0
  0
LINE
  5
340
330
87
100
AcDbEntity
  8
0
  6
CONTINUOUS
 62
     7
100
AcDbLine
 10
-831.8232522910112
 20
-659.686633858154
 30
0.0
 11
-831.8034158652299
 21
-659.5489194721677
 31
0.0
  0
LINE
  5
341
330
87
100
AcDbEntity
  8
0
  6
CONTINUOUS
 62
     7
100
AcDbLine
 10
-831.8034158652299
 20
-659.5489194721677
 30
0.0
 11
-831.7854019706701
 21
-659.3239370268466
 31
0.0
  0
LINE
  5
342
330
87
100
AcDbEntity
  8
0
  6
CONTINUOUS
 62
     7
100
AcDbLine
 10
-831.7854019706701
 20
-659.3239370268466
 30
0.0
 11
-831.739481539058
 21
-659.2639444202878
 31
0.0
  0
LINE
  5
343
330
87
100
AcDbEntity
  8
0
  6
CONTINUOUS
 62
     7
100
AcDbLine
 10
-831.739481539058
 20
-659.2639444202878
 30
0.0
 11
-831.6664224570268
 21
-659.1657693714596
 31
0.0
  0
LINE
  5
344
330
87
100
AcDbEntity
  8
0
  6
CONTINUOUS
 62
     7
100
AcDbLine
 10
-831.6664224570268
 20
-659.1657693714596
 30
0.0
 11
-831.6267496054643
 21
-659.1110170216061
 31
0.0
  0
LINE
  5
345
330
87
100
AcDbEntity
  8
0
  6
CONTINUOUS
 62
     7
100
AcDbLine
 10
-831.6267496054643
 20
-659.1110170216061
 30
0.0
 11
-831.5324808066362
 21
-658.976787361572
 31
0.0
  0
LINE
  5
346
330
87
100
AcDbEntity
  8
0
  6
CONTINUOUS
 62
     7
100
AcDbLine
 10
-831.5324808066362
 20
-658.976787361572
 30
0.0
 11
-831.4493204062455
 21
-658.8533437580563
 31
0.0
  0
LINE
  5
347
330
87
100
AcDbEntity
  8
0
  6
CONTINUOUS
 62
     7
100
AcDbLine
 10
-831.4493204062455
 20
-658.8533437580563
 30
0.0
 11
-831.3960367148393
 21
-658.7716539234616
 31
0.0
  0
LINE
  5
348
330
87
100
AcDbEntity
  8
0
  6
CONTINUOUS
 62
     7
100
AcDbLine
 10
-831.3960367148393
 20
-658.7716539234616
 30
0.0
 11
-831.1425271933549
 21
-658.3541543812262
 31
0.0
  0
LINE
  5
349
330
87
100
AcDbEntity
  8
0
  6
CONTINUOUS
 62
     7
100
AcDbLine
 10
-831.1425271933549
 20
-658.3541543812262
 30
0.0
 11
-831.1126504843705
 21
-658.301639351318
 31
0.0
  0
LINE
  5
34A
330
87
100
AcDbEntity
  8
0
  6
CONTINUOUS
 62
     7
100
AcDbLine
 10
-831.1126504843705
 20
-658.301639351318
 30
0.0
 11
-830.8447366660112
 21
-657.796310219238
 31
0.0
  0
LINE
  5
34B
330
87
100
AcDbEntity
  8
0
  6
CONTINUOUS
 62
     7
100
AcDbLine
 10
-830.8447366660112
 20
-657.796310219238
 30
0.0
 11
-830.8377416840594
 21
-657.7822176081781
 31
0.0
  0
LINE
  5
34C
330
87
100
AcDbEntity
  8
0
  6
CONTINUOUS
 62
     1
100
AcDbLine
 10
-831.9053269085034
 20
-660.0385048354492
 30
0.0
 11
-830.7559608286247
 21
-660.3834071613746
 31
0.0
  0
LINE
  5
34D
330
87
100
AcDbEntity
  8
0
  6
CONTINUOUS
 62
     7
100
AcDbLine
 10
-831.4338882109787
 20
-657.9631731113741
 30
0.0
 11
-831.431131929683
 21
-657.9967115253903
 31
0.0
  0
LINE
  5
34E
330
87
100
AcDbEntity
  8
0
  6
CONTINUOUS
 62
     7
100
AcDbLine
 10
-831.431131929683
 20
-657.9967115253903
 30
0.0
 11
-831.4298501914018
 21
-658.1896760792233
 31
0.0
  0
LINE
  5
34F
330
87
100
AcDbEntity
  8
0
  6
CONTINUOUS
 62
     7
100
AcDbLine
 10
-831.4298501914018
 20
-658.1896760792233
 30
0.0
 11
-831.4588113730424
 21
-658.4086187214343
 31
0.0
  0
LINE
  5
350
330
87
100
AcDbEntity
  8
0
  6
CONTINUOUS
 62
     7
100
AcDbLine
 10
-831.4588113730424
 20
-658.4086187214343
 30
0.0
 11
-831.469462007808
 21
-658.4559476704098
 31
0.0
  0
LINE
  5
351
330
87
100
AcDbEntity
  8
0
  6
CONTINUOUS
 62
     7
100
AcDbLine
 10
-831.469462007808
 20
-658.4559476704098
 30
0.0
 11
-831.5057474081987
 21
-658.5815294117428
 31
0.0
  0
LINE
  5
352
330
87
100
AcDbEntity
  8
0
  6
CONTINUOUS
 62
     7
100
AcDbLine
 10
-831.5057474081987
 20
-658.5815294117428
 30
0.0
 11
-831.5980935996049
 21
-658.7980039448239
 31
0.0
  0
LINE
  5
353
330
87
100
AcDbEntity
  8
0
  6
CONTINUOUS
 62
     7
100
AcDbLine
 10
-831.5980935996049
 20
-658.7980039448239
 30
0.0
 11
-831.6715188925737
 21
-658.9232652515866
 31
0.0
  0
LINE
  5
354
330
87
100
AcDbEntity
  8
0
  6
CONTINUOUS
 62
     7
100
AcDbLine
 10
-831.6715188925737
 20
-658.9232652515866
 30
0.0
 11
-831.7357889121049
 21
-659.014135155151
 31
0.0
  0
LINE
  5
355
330
87
100
AcDbEntity
  8
0
  6
CONTINUOUS
 62
     7
100
AcDbLine
 10
-831.7357889121049
 20
-659.014135155151
 30
0.0
 11
-831.7962442343705
 21
-659.0881631702878
 31
0.0
  0
LINE
  5
356
330
87
100
AcDbEntity
  8
0
  6
CONTINUOUS
 62
     7
100
AcDbLine
 10
-831.7962442343705
 20
-659.0881631702878
 30
0.0
 11
-832.0268960898393
 21
-659.3026502460934
 31
0.0
  0
LINE
  5
357
330
87
100
AcDbEntity
  8
0
  6
CONTINUOUS
 62
     7
100
AcDbLine
 10
-832.0268960898393
 20
-659.3026502460934
 30
0.0
 11
-832.0825601523393
 21
-659.3424756855466
 31
0.0
  0
LINE
  5
358
330
87
100
AcDbEntity
  8
0
  6
CONTINUOUS
 62
     7
100
AcDbLine
 10
-832.0825601523393
 20
-659.3424756855466
 30
0.0
 11
-832.2577310507768
 21
-659.4452188343512
 31
0.0
  0
LINE
  5
359
330
87
100
AcDbEntity
  8
0
  6
CONTINUOUS
 62
     7
100
AcDbLine
 10
-832.2577310507768
 20
-659.4452188343512
 30
0.0
 11
-832.4916742390888
 21
-659.5383203167921
 31
0.0
  0
LINE
  5
35A
330
87
100
AcDbEntity
  8
0
  6
CONTINUOUS
 62
     7
100
AcDbLine
 10
-831.4311421530674
 20
-657.9965866865095
 30
0.0
 11
-831.5041202503508
 21
-658.5758979049488
 31
0.0
  0
LINE
  5
35B
330
87
100
AcDbEntity
  8
0
  6
CONTINUOUS
 62
     7
100
AcDbLine
 10
-831.5047971241074
 20
-658.5782405713699
 30
0.0
 11
-831.6769736271144
 21
-658.9309832879426
 31
0.0
  0
LINE
  5
35C
330
87
100
AcDbEntity
  8
0
  6
CONTINUOUS
 62
     7
100
AcDbLine
 10
-831.492025346608
 20
-657.6673039908992
 30
0.0
 11
-831.4311622108562
 21
-657.9963418258849
 31
0.0
  0
LINE
  5
35D
330
87
100
AcDbEntity
  8
0
  6
CONTINUOUS
 62
     7
100
AcDbLine
 10
-831.7854019706701
 20
-659.3239370268466
 30
0.0
 11
-833.6341911952932
 21
-659.8851221874465
 31
0.0
  0
LINE
  5
35E
330
87
100
AcDbEntity
  8
0
  6
CONTINUOUS
 62
     7
100
AcDbLine
 10
-831.9955330310877
 20
-659.2734852051535
 30
0.0
 11
-832.0362175996852
 21
-659.3093194192179
 31
0.0
  0
LINE
  5
35F
330
87
100
AcDbEntity
  8
0
  6
CONTINUOUS
 62
     7
100
AcDbLine
 10
-832.0410953634419
 20
-659.3128092658644
 30
0.0
 11
-832.2516461806808
 21
-659.4416498698256
 31
0.0
  0
LINE
  5
360
330
87
100
AcDbEntity
  8
0
  6
CONTINUOUS
 62
     7
100
AcDbLine
 10
-831.6848975426565
 20
-658.9421864240767
 30
0.0
 11
-831.7919542419222
 21
-659.082910126479
 31
0.0
  0
LINE
  5
361
330
87
100
AcDbEntity
  8
0
  6
CONTINUOUS
 62
     7
100
AcDbLine
 10
-831.7953469411641
 20
-659.0870644277329
 30
0.0
 11
-831.7969032191595
 21
-659.0887759714287
 31
0.0
  0
LINE
  5
362
330
87
100
AcDbEntity
  8
0
  6
CONTINUOUS
 62
     7
100
AcDbLine
 10
-838.609105485064
 20
-634.6756112350758
 30
0.0
 11
-842.6969514074899
 21
-631.7197030686084
 31
0.0
  0
LINE
  5
363
330
87
100
AcDbEntity
  8
0
  6
CONTINUOUS
 62
     7
100
AcDbLine
 10
-842.2289754942904
 20
-636.2816818560987
 30
0.0
 11
-842.3721414511674
 21
-636.1573531956174
 31
0.0
  0
LINE
  5
364
330
87
100
AcDbEntity
  8
0
  6
CONTINUOUS
 62
     7
100
AcDbLine
 10
-842.3721414511674
 20
-636.1573531956174
 30
0.0
 11
-842.6969400419039
 21
-635.9838200505537
 31
0.0
  0
LINE
  5
365
330
87
100
AcDbEntity
  8
0
  6
CONTINUOUS
 62
     1
100
AcDbLine
 10
-839.632222204702
 20
-636.0336766325763
 30
0.0
 11
-842.6969476072154
 21
-633.8175836052997
 31
0.0
  0
LINE
  5
366
330
87
100
AcDbEntity
  8
0
  6
CONTINUOUS
 62
     1
100
AcDbLine
 10
-838.609105485064
 20
-634.6756112350758
 30
0.0
 11
-839.0637918417924
 21
-635.2791378826596
 31
0.0
  0
LINE
  5
367
330
87
100
AcDbEntity
  8
0
  6
CONTINUOUS
 62
     1
100
AcDbLine
 10
-839.0637918417924
 20
-635.2791378826596
 30
0.0
 11
-839.334696382808
 21
-635.6387381882168
 31
0.0
  0
LINE
  5
368
330
87
100
AcDbEntity
  8
0
  6
CONTINUOUS
 62
     1
100
AcDbLine
 10
-839.334696382808
 20
-635.6387381882168
 30
0.0
 11
-839.632222204702
 21
-636.0336766325763
 31
0.0
  0
LINE
  5
369
330
87
100
AcDbEntity
  8
0
  6
CONTINUOUS
 62
     1
100
AcDbLine
 10
-838.4863335103255
 20
-634.777472610137
 30
0.0
 11
-838.6796060507768
 21
-634.9893493980853
 31
0.0
  0
LINE
  5
36A
330
87
100
AcDbEntity
  8
0
  6
CONTINUOUS
 62
     1
100
AcDbLine
 10
-838.6796060507768
 20
-634.9893493980853
 30
0.0
 11
-838.9955545371049
 21
-635.3357317776181
 31
0.0
  0
LINE
  5
36B
330
87
100
AcDbEntity
  8
0
  6
CONTINUOUS
 62
     1
100
AcDbLine
 10
-838.9955545371049
 20
-635.3357317776181
 30
0.0
 11
-839.632222204702
 21
-636.0336766325763
 31
0.0
  0
LINE
  5
36C
330
87
100
AcDbEntity
  8
0
  6
CONTINUOUS
 62
     7
100
AcDbLine
 10
-838.609105485064
 20
-634.6756112350758
 30
0.0
 11
-838.5771585410112
 21
-634.6995246738888
 31
0.0
  0
LINE
  5
36D
330
87
100
AcDbEntity
  8
0
  6
CONTINUOUS
 62
     7
100
AcDbLine
 10
-838.5771585410112
 20
-634.6995246738888
 30
0.0
 11
-838.5460306113237
 21
-634.724499973724
 31
0.0
  0
LINE
  5
36E
330
87
100
AcDbEntity
  8
0
  6
CONTINUOUS
 62
     7
100
AcDbLine
 10
-838.5460306113237
 20
-634.724499973724
 30
0.0
 11
-838.5157266562455
 21
-634.7504976124264
 31
0.0
  0
LINE
  5
36F
330
87
100
AcDbEntity
  8
0
  6
CONTINUOUS
 62
     7
100
AcDbLine
 10
-838.5157266562455
 20
-634.7504976124264
 30
0.0
 11
-838.4863335103255
 21
-634.777472610137
 31
0.0
  0
LINE
  5
370
330
87
100
AcDbEntity
  8
0
  6
CONTINUOUS
 62
     7
100
AcDbLine
 10
-831.171504978025
 20
-641.7172918814495
 30
0.0
 11
-838.4863335103255
 21
-634.777472610137
 31
0.0
  0
LINE
  5
371
330
87
100
AcDbEntity
  8
0
  6
CONTINUOUS
 62
     1
100
AcDbLine
 10
-839.1327110766142
 20
-636.5075793273063
 30
0.0
 11
-839.632222204702
 21
-636.0336766325763
 31
0.0
  0
LINE
  5
372
330
87
100
AcDbEntity
  8
0
  6
CONTINUOUS
 62
     7
100
AcDbLine
 10
-826.1174722617143
 20
-645.225714477966
 30
0.0
 11
-826.1519394269744
 21
-645.191717686731
 31
0.0
  0
LINE
  5
373
330
87
100
AcDbEntity
  8
0
  6
CONTINUOUS
 62
     7
100
AcDbLine
 10
-826.4109199160957
 20
-644.9362715090092
 30
0.0
 11
-826.5682779257768
 21
-644.7810609669186
 31
0.0
  0
LINE
  5
374
330
87
100
AcDbEntity
  8
0
  6
CONTINUOUS
 62
     7
100
AcDbLine
 10
-825.1427408164018
 20
-646.9436042637326
 30
0.0
 11
-825.1604257582294
 21
-646.8984598890111
 31
0.0
  0
LINE
  5
375
330
87
100
AcDbEntity
  8
0
  6
CONTINUOUS
 62
     7
100
AcDbLine
 10
-825.2928688557004
 20
-646.5603722164678
 30
0.0
 11
-825.3736978476518
 21
-646.3540399403073
 31
0.0
  0
LINE
  5
376
330
87
100
AcDbEntity
  8
0
  6
CONTINUOUS
 62
     7
100
AcDbLine
 10
-826.8504434531205
 20
-644.5557449192502
 30
0.0
 11
-826.8910813007824
 21
-644.5297484994626
 31
0.0
  0
LINE
  5
377
330
87
100
AcDbEntity
  8
0
  6
CONTINUOUS
 62
     7
100
AcDbLine
 10
-824.943583101558
 20
-647.9164445728757
 30
0.0
 11
-824.951416649048
 21
-647.8690867180876
 31
0.0
  0
LINE
  5
378
330
87
100
AcDbEntity
  8
0
  6
CONTINUOUS
 62
     7
100
AcDbLine
 10
-825.0109062753145
 20
-647.509441093197
 30
0.0
 11
-825.0469156210893
 21
-647.2917459339596
 31
0.0
  0
LINE
  5
379
330
87
100
AcDbEntity
  8
0
  6
CONTINUOUS
 62
     7
100
AcDbLine
 10
-826.5682779257768
 20
-644.7810609669186
 30
0.0
 11
-826.6316516268907
 21
-644.7304555226765
 31
0.0
  0
LINE
  5
37A
330
87
100
AcDbEntity
  8
0
  6
CONTINUOUS
 62
     7
100
AcDbLine
 10
-826.7479017472215
 20
-644.6376269695202
 30
0.0
 11
-826.8504434531205
 21
-644.5557449192502
 31
0.0
  0
LINE
  5
37B
330
87
100
AcDbEntity
  8
0
  6
CONTINUOUS
 62
     7
100
AcDbLine
 10
-825.8883157675737
 20
-645.5047738880603
 30
0.0
 11
-825.9399947508246
 21
-645.441840883982
 31
0.0
  0
LINE
  5
37C
330
87
100
AcDbEntity
  8
0
  6
CONTINUOUS
 62
     7
100
AcDbLine
 10
-826.0337359071655
 20
-645.3276859180141
 30
0.0
 11
-826.1174722617143
 21
-645.225714477966
 31
0.0
  0
LINE
  5
37D
330
87
100
AcDbEntity
  8
0
  6
CONTINUOUS
 62
     7
100
AcDbLine
 10
-825.5398355429643
 20
-646.0334356159665
 30
0.0
 11
-825.5664146149211
 21
-645.9931138498678
 31
0.0
  0
LINE
  5
37E
330
87
100
AcDbEntity
  8
0
  6
CONTINUOUS
 62
     7
100
AcDbLine
 10
-825.7664643515836
 20
-645.689628509861
 30
0.0
 11
-825.8883157675737
 21
-645.5047738880603
 31
0.0
  0
LINE
  5
37F
330
87
100
AcDbEntity
  8
0
  6
CONTINUOUS
 62
     7
100
AcDbLine
 10
-825.3736978476518
 20
-646.3540399403073
 30
0.0
 11
-825.4111285638064
 21
-646.2818079917433
 31
0.0
  0
LINE
  5
380
330
87
100
AcDbEntity
  8
0
  6
CONTINUOUS
 62
     7
100
AcDbLine
 10
-825.4792688488451
 20
-646.150314232882
 30
0.0
 11
-825.5398355429643
 21
-646.0334356159665
 31
0.0
  0
LINE
  5
381
330
87
100
AcDbEntity
  8
0
  6
CONTINUOUS
 62
     7
100
AcDbLine
 10
-824.9221902792924
 20
-648.2769039005734
 30
0.0
 11
-824.9239736761574
 21
-648.2468544743142
 31
0.0
  0
LINE
  5
382
330
87
100
AcDbEntity
  8
0
  6
CONTINUOUS
 62
     7
100
AcDbLine
 10
-824.9358158359246
 20
-648.0473194669648
 30
0.0
 11
-824.943583101558
 21
-647.9164445728757
 31
0.0
  0
LINE
  5
383
330
87
100
AcDbEntity
  8
0
  6
CONTINUOUS
 62
     7
100
AcDbLine
 10
-825.0469156210893
 20
-647.2917459339596
 30
0.0
 11
-825.0684729038967
 21
-647.2134263603066
 31
0.0
  0
LINE
  5
384
330
87
100
AcDbEntity
  8
0
  6
CONTINUOUS
 62
     7
100
AcDbLine
 10
-825.1077697596629
 20
-647.0706573009111
 30
0.0
 11
-825.1427408164018
 21
-646.9436042637326
 31
0.0
  0
LINE
  5
385
330
87
100
AcDbEntity
  8
0
  6
CONTINUOUS
 62
     7
100
AcDbLine
 10
-824.9225054644248
 20
-648.3040425044774
 30
0.0
 11
-824.9221902792924
 21
-648.2769039005734
 31
0.0
  0
ARC
  5
386
330
87
100
AcDbEntity
  8
0
  6
CONTINUOUS
 62
     1
100
AcDbCircle
 10
-834.6829616015366
 20
-659.2049908811314
 30
0.0
 40
4.099999999999171
100
AcDbArc
 50
343.2965253889166
 51
20.30502290651444
  0
ENDBLK
  5
89
330
87
100
AcDbEntity
  8
0
100
AcDbBlockEnd
  0
BLOCK
  5
8C
330
8A
100
AcDbEntity
  8
0
100
AcDbBlockBegin
  2
PD05300A09100_BIELLA_I1__7
 70
     0
 10
-842.6969514074899
 20
-665.4429025753261
 30
0.0
  3
PD05300A09100_BIELLA_I1__7
  1

  0
INSERT
  5
8B
330
8A
100
AcDbEntity
  8
0
100
AcDbBlockReference
  2
PX007445_BIELLA_INTERN0__6
 10
-842.6969514074899
 20
-665.4429025753261
 30
0.0
  0
ENDBLK
  5
8D
330
8A
100
AcDbEntity
  8
0
100
AcDbBlockEnd
  0
BLOCK
  5
91
330
8E
100
AcDbEntity
  8
0
100
AcDbBlockBegin
  2
GFS0060A00100_GRUPPO_B0__8
 70
     0
 10
-842.6969521547835
 20
-669.9103076528836
 30
0.0
  3
GFS0060A00100_GRUPPO_B0__8
  1

  0
INSERT
  5
8F
330
8E
100
AcDbEntity
  8
0
100
AcDbBlockReference
  2
PD05300A09200_BIELLA_I1__5
 10
-842.6969521547835
 20
-669.9103076528836
 30
0.0
  0
INSERT
  5
90
330
8E
100
AcDbEntity
  8
0
100
AcDbBlockReference
  2
PD05300A09100_BIELLA_I1__7
 10
-842.6969514074899
 20
-665.4429025753261
 30
0.0
  0
ENDBLK
  5
92
330
8E
100
AcDbEntity
  8
0
100
AcDbBlockEnd
  0
BLOCK
  5
95
330
93
100
AcDbEntity
  8
0
100
AcDbBlockBegin
  2
GFS0060A00200_GRUPPO_B0__9
 70
     0
 10
-842.6969521547835
 20
-669.9103076528836
 30
0.0
  3
GFS0060A00200_GRUPPO_B0__9
  1

  0
INSERT
  5
94
330
93
100
AcDbEntity
  8
0
100
AcDbBlockReference
  2
GFS0060A00100_GRUPPO_B0__8
 10
-842.6969521547835
 20
-669.9103076528836
 30
0.0
  0
ENDBLK
  5
96
330
93
100
AcDbEntity
  8
0
100
AcDbBlockEnd
  0
BLOCK
  5
9A
330
97
100
AcDbEntity
  8
0
100
AcDbBlockBegin
  2
GFS0060A00300_GRUPPO_B__10
 70
     0
 10
-842.6969521547835
 20
-669.9103076528836
 30
0.0
  3
GFS0060A00300_GRUPPO_B__10
  1

  0
INSERT
  5
98
330
97
100
AcDbEntity
  8
0
100
AcDbBlockReference
  2
PD00700A24600_CORPO_RE0__3
 10
-842.6969400394173
 20
-645.4460650690062
 30
0.0
  0
INSERT
  5
99
330
97
100
AcDbEntity
  8
0
100
AcDbBlockReference
  2
GFS0060A00200_GRUPPO_B0__9
 10
-842.6969521547835
 20
-669.9103076528836
 30
0.0
  0
ENDBLK
  5
9B
330
97
100
AcDbEntity
  8
0
100
AcDbBlockEnd
  0
BLOCK
  5
9E
330
9C
100
AcDbEntity
  8
0
100
AcDbBlockBegin
  2
GFS0060A00400_GRUPPO_B__11
 70
     0
 10
-842.6969521547835
 20
-669.9103076528836
 30
0.0
  3
GFS0060A00400_GRUPPO_B__11
  1

  0
INSERT
  5
9D
330
9C
100
AcDbEntity
  8
0
100
AcDbBlockReference
  2
GFS0060A00300_GRUPPO_B__10
 10
-842.6969521547835
 20
-669.9103076528836
 30
0.0
  0
ENDBLK
  5
9F
330
9C
100
AcDbEntity
  8
0
100
AcDbBlockEnd
  0
BLOCK
  5
A2
330
A0
100
AcDbEntity
  8
0
100
AcDbBlockBegin
  2
GFS0060A00500_GRUPPO_C__12
 70
     0
 10
-842.6969521547835
 20
-669.9103076528836
 30
0.0
  3
GFS0060A00500_GRUPPO_C__12
  1

  0
INSERT
  5
A1
330
A0
100
AcDbEntity
  8
0
100
AcDbBlockReference
  2
GFS0060A00400_GRUPPO_B__11
 10
-842.6969521547835
 20
-669.9103076528836
 30
0.0
  0
ENDBLK
  5
A3
330
A0
100
AcDbEntity
  8
0
100
AcDbBlockEnd
  0
BLOCK
  5
A6
330
A4
100
AcDbEntity
  8
0
100
AcDbBlockBegin
  2
GFS0060A00700_GRUPPO_C__13
 70
     0
 10
-842.6969521547835
 20
-669.9103076528836
 30
0.0
  3
GFS0060A00700_GRUPPO_C__13
  1

  0
INSERT
  5
A5
330
A4
100
AcDbEntity
  8
0
100
AcDbBlockReference
  2
GFS0060A00500_GRUPPO_C__12
 10
-842.6969521547835
 20
-669.9103076528836
 30
0.0
  0
ENDBLK
  5
A7
330
A4
100
AcDbEntity
  8
0
100
AcDbBlockEnd
  0
BLOCK
  5
AA
330
A8
100
AcDbEntity
  8
0
100
AcDbBlockBegin
  2
00S0060A00100_CERNIERA__14
 70
     0
 10
-842.6969521547835
 20
-669.9103076528836
 30
0.0
  3
00S0060A00100_CERNIERA__14
  1

  0
INSERT
  5
A9
330
A8
100
AcDbEntity
  8
0
100
AcDbBlockReference
  2
GFS0060A00700_GRUPPO_C__13
 10
-842.6969521547835
 20
-669.9103076528836
 30
0.0
  0
ENDBLK
  5
AB
330
A8
100
AcDbEntity
  8
0
100
AcDbBlockEnd
  0
BLOCK
  5
AD
330
AC
100
AcDbEntity
  8
0
100
AcDbBlockBegin
  2
SCASSO_MONTANTE_S0043___15
 70
     0
 10
-843.9451216586131
 20
-651.4807362944812
 30
0.0
  3
SCASSO_MONTANTE_S0043___15
  1

  0
LINE
  5
387
330
AC
100
AcDbEntity
  8
0
  6
CONTINUOUS
 62
     7
100
AcDbLine
 10
-843.9315591757768
 20
-651.4780385822751
 30
0.0
 11
-843.9451216586131
 21
-651.4807362944812
 31
0.0
  0
LINE
  5
388
330
AC
100
AcDbEntity
  8
0
  6
CONTINUOUS
 62
     7
100
AcDbLine
 10
-842.8491617148393
 20
-650.3956468433835
 30
0.0
 11
-842.8531529335214
 21
-650.4016198705622
 31
0.0
  0
LINE
  5
389
330
AC
100
AcDbEntity
  8
0
  6
CONTINUOUS
 62
     7
100
AcDbLine
 10
-843.2751503640666
 20
-651.0331568326119
 30
0.0
 11
-843.2827249472612
 21
-651.0444925159909
 31
0.0
  0
LINE
  5
38A
330
AC
100
AcDbEntity
  8
0
  6
CONTINUOUS
 62
     7
100
AcDbLine
 10
-842.8472187080461
 20
-650.3858778886588
 30
0.0
 11
-842.8491617148393
 21
-650.3956468433835
 31
0.0
  0
LINE
  5
38B
330
AC
100
AcDbEntity
  8
0
  6
CONTINUOUS
 62
     7
100
AcDbLine
 10
-843.2827249472612
 20
-651.0444925159909
 30
0.0
 11
-843.2926788803506
 21
-651.0511436579081
 31
0.0
  0
LINE
  5
38C
330
AC
100
AcDbEntity
  8
0
  6
CONTINUOUS
 62
     7
100
AcDbLine
 10
-843.9207818287705
 20
-651.4708372414789
 30
0.0
 11
-843.9315591757768
 21
-651.4780385822751
 31
0.0
  0
ENDBLK
  5
AE
330
AC
100
AcDbEntity
  8
0
100
AcDbBlockEnd
  0
BLOCK
  5
B1
330
AF
100
AcDbEntity
  8
0
100
AcDbBlockBegin
  2
PX004196_GRUPPO_N_3_SC__16
 70
     0
 10
-843.9451216586131
 20
-651.4807362944812
 30
0.0
  3
PX004196_GRUPPO_N_3_SC__16
  1

  0
INSERT
  5
B0
330
AF
100
AcDbEntity
  8
0
100
AcDbBlockReference
  2
SCASSO_MONTANTE_S0043___15
 10
-843.9451216586131
 20
-651.4807362944812
 30
0.0
  0
ENDBLK
  5
B2
330
AF
100
AcDbEntity
  8
0
100
AcDbBlockEnd
  0
BLOCK
  5
B5
330
B3
100
AcDbEntity
  8
0
100
AcDbBlockBegin
  2
FRESATE_CERNIERE_TELAI__17
 70
     0
 10
-843.9451216586131
 20
-651.4807362944812
 30
0.0
  3
FRESATE_CERNIERE_TELAI__17
  1

  0
INSERT
  5
B4
330
B3
100
AcDbEntity
  8
0
100
AcDbBlockReference
  2
PX004196_GRUPPO_N_3_SC__16
 10
-843.9451216586131
 20
-651.4807362944812
 30
0.0
  0
ENDBLK
  5
B6
330
B3
100
AcDbEntity
  8
0
100
AcDbBlockEnd
  0
BLOCK
  5
B8
330
B7
100
AcDbEntity
  8
0
100
AcDbBlockBegin
  2
PX001697_STIPITE_MONTA__18
 70
     0
 10
168.3030674759502
 20
-651.6302790386826
 30
0.0
  3
PX001697_STIPITE_MONTA__18
  1

  0
LINE
  5
38D
330
B7
100
AcDbEntity
  8
0
  6
CONTINUOUS
 62
     7
100
AcDbLine
 10
210.3030674759502
 20
-561.6302790386826
 30
0.0
 11
168.3030674759502
 21
-561.6302790386826
 31
0.0
  0
LINE
  5
38E
330
B7
100
AcDbEntity
  8
0
  6
CONTINUOUS
 62
     7
100
AcDbLine
 10
168.3030674759502
 20
-561.6302790386826
 30
0.0
 11
168.3030674759502
 21
-599.6302790387026
 31
0.0
  0
LINE
  5
38F
330
B7
100
AcDbEntity
  8
0
  6
CONTINUOUS
 62
     7
100
AcDbLine
 10
170.3030674759502
 20
-601.6302790387026
 30
0.0
 11
169.5377096230513
 21
-601.4780385822751
 31
0.0
  0
LINE
  5
390
330
B7
100
AcDbEntity
  8
0
  6
CONTINUOUS
 62
     7
100
AcDbLine
 10
169.5377096230513
 20
-601.4780385822751
 30
0.0
 11
168.8888448769576
 21
-601.0444925159909
 31
0.0
  0
LINE
  5
391
330
B7
100
AcDbEntity
  8
0
  6
CONTINUOUS
 62
     7
100
AcDbLine
 10
168.8888448769576
 20
-601.0444925159909
 30
0.0
 11
168.4553121621138
 21
-600.3956449360348
 31
0.0
  0
LINE
  5
392
330
B7
100
AcDbEntity
  8
0
  6
CONTINUOUS
 62
     7
100
AcDbLine
 10
168.4553121621138
 20
-600.3956449360348
 30
0.0
 11
168.3030674759502
 21
-599.6302790387026
 31
0.0
  0
LINE
  5
393
330
B7
100
AcDbEntity
  8
0
  6
CONTINUOUS
 62
     7
100
AcDbLine
 10
179.3030674759502
 20
-601.6302790387026
 30
0.0
 11
170.3030674759502
 21
-601.6302790387026
 31
0.0
  0
LINE
  5
394
330
B7
100
AcDbEntity
  8
0
  6
CONTINUOUS
 62
     7
100
AcDbLine
 10
181.3030674759502
 20
-651.6302790386826
 30
0.0
 11
210.3030674759502
 21
-651.6302790386826
 31
0.0
  0
LINE
  5
395
330
B7
100
AcDbEntity
  8
0
  6
CONTINUOUS
 62
     7
100
AcDbLine
 10
179.3030674759502
 20
-601.6302790387026
 30
0.0
 11
179.3030674759502
 21
-649.6302790386826
 31
0.0
  0
LINE
  5
396
330
B7
100
AcDbEntity
  8
0
  6
CONTINUOUS
 62
     7
100
AcDbLine
 10
181.3030674759502
 20
-651.6302790386826
 30
0.0
 11
180.5376791054732
 21
-651.4780385822751
 31
0.0
  0
LINE
  5
397
330
B7
100
AcDbEntity
  8
0
  6
CONTINUOUS
 62
     7
100
AcDbLine
 10
180.5376791054732
 20
-651.4780385822751
 30
0.0
 11
179.8888448769576
 21
-651.0444925159909
 31
0.0
  0
LINE
  5
398
330
B7
100
AcDbEntity
  8
0
  6
CONTINUOUS
 62
     7
100
AcDbLine
 10
179.8888448769576
 20
-651.0444925159909
 30
0.0
 11
179.4553121621138
 21
-650.3956449360348
 31
0.0
  0
LINE
  5
399
330
B7
100
AcDbEntity
  8
0
  6
CONTINUOUS
 62
     7
100
AcDbLine
 10
179.4553121621138
 20
-650.3956449360348
 30
0.0
 11
179.3030674759502
 21
-649.6302790386826
 31
0.0
  0
LINE
  5
39A
330
B7
100
AcDbEntity
  8
0
  6
CONTINUOUS
 62
     7
100
AcDbLine
 10
210.3030674759502
 20
-651.6302790386826
 30
0.0
 11
210.3030674759502
 21
-561.6302790386826
 31
0.0
  0
ENDBLK
  5
B9
330
B7
100
AcDbEntity
  8
0
100
AcDbBlockEnd
  0
BLOCK
  5
BC
330
BA
100
AcDbEntity
  8
0
100
AcDbBlockBegin
  2
TELAIO__19
 70
     0
 10
168.3030674759502
 20
-651.6302790386826
 30
0.0
  3
TELAIO__19
  1

  0
INSERT
  5
BB
330
BA
100
AcDbEntity
  8
0
100
AcDbBlockReference
  2
PX001697_STIPITE_MONTA__18
 10
168.3030674759502
 20
-651.6302790386826
 30
0.0
  0
ENDBLK
  5
BD
330
BA
100
AcDbEntity
  8
0
100
AcDbBlockEnd
  0
BLOCK
  5
C1
330
BE
100
AcDbEntity
  8
0
100
AcDbBlockBegin
  2
PX001692_TELAIO_BATTEN__20
 70
     0
 10
-843.9451216586131
 20
-651.6302790386826
 30
0.0
  3
PX001692_TELAIO_BATTEN__20
  1

  0
INSERT
  5
BF
330
BE
100
AcDbEntity
  8
0
100
AcDbBlockReference
  2
FRESATE_CERNIERE_TELAI__17
 10
-843.9451216586131
 20
-651.4807362944812
 30
0.0
  0
INSERT
  5
C0
330
BE
100
AcDbEntity
  8
0
100
AcDbBlockReference
  2
TELAIO__19
 10
168.3030674759502
 20
-651.6302790386826
 30
0.0
  0
ENDBLK
  5
C2
330
BE
100
AcDbEntity
  8
0
100
AcDbBlockEnd
  0
BLOCK
  5
C4
330
C3
100
AcDbEntity
  8
0
100
AcDbBlockBegin
  2
PX001595_PX001297_1187__21
 70
     0
 10
-1556.884412286619
 20
-1405.79772547165
 30
0.0
  3
PX001595_PX001297_1187__21
  1

  0
LINE
  5
39B
330
C3
100
AcDbEntity
  8
0
  6
CONTINUOUS
 62
     7
100
AcDbLine
 10
-808.8867581348113
 20
-687.4986156340028
 30
0.0
 11
-838.5852429446459
 21
-657.8001308241674
 31
0.0
  0
LINE
  5
39C
330
C3
100
AcDbEntity
  8
0
  6
CONTINUOUS
 62
     7
100
AcDbLine
 10
-1526.600141039156
 20
-1405.211998538349
 30
0.0
 11
-1556.298625848991
 21
-1375.513513728513
 31
0.0
  0
LINE
  5
39D
330
C3
100
AcDbEntity
  8
0
  6
CONTINUOUS
 62
     7
100
AcDbLine
 10
-808.8867581348113
 20
-690.3270427587495
 30
0.0
 11
-1523.77171391441
 21
-1405.211998538349
 31
0.0
  0
LINE
  5
39E
330
C3
100
AcDbEntity
  8
0
  6
CONTINUOUS
 62
     7
100
AcDbLine
 10
-1556.298625848991
 20
-1372.685086603768
 30
0.0
 11
-841.4136700693925
 21
-657.8001308241692
 31
0.0
  0
ARC
  5
39F
330
C3
100
AcDbEntity
  8
0
  6
CONTINUOUS
 62
     7
100
AcDbCircle
 10
-839.9994565070192
 20
-659.2143443865407
 30
0.0
 40
2.000000000000338
100
AcDbArc
 50
45.0
 51
135.0000000000369
  0
ARC
  5
3A0
330
C3
100
AcDbEntity
  8
0
  6
CONTINUOUS
 62
     7
100
AcDbCircle
 10
-810.3009716971828
 20
-688.9128291963762
 30
0.0
 40
1.999999999999051
100
AcDbArc
 50
314.9999999999632
 51
45.00000000003685
  0
ARC
  5
3A1
330
C3
100
AcDbEntity
  8
0
  6
CONTINUOUS
 62
     7
100
AcDbCircle
 10
-1525.18590282898
 20
-1403.797760328603
 30
0.0
 40
1.999999999999576
100
AcDbArc
 50
225.001586076682
 51
314.9990014218503
  0
ARC
  5
3A2
330
C3
100
AcDbEntity
  8
0
  6
CONTINUOUS
 62
     7
100
AcDbCircle
 10
-1554.884412286619
 20
-1374.099300166141
 30
0.0
 40
1.999999999999051
100
AcDbArc
 50
134.9999999999816
 51
225.0000000000046
  0
ENDBLK
  5
C5
330
C3
100
AcDbEntity
  8
0
100
AcDbBlockEnd
  0
BLOCK
  5
C8
330
C6
100
AcDbEntity
  8
0
100
AcDbBlockBegin
  2
PX001681_PANNELLO_1015__22
 70
     0
 10
-1556.884412286619
 20
-1405.79772547165
 30
0.0
  3
PX001681_PANNELLO_1015__22
  1

  0
INSERT
  5
C7
330
C6
100
AcDbEntity
  8
0
100
AcDbBlockReference
  2
PX001595_PX001297_1187__21
 10
-1556.884412286619
 20
-1405.79772547165
 30
0.0
  0
ENDBLK
  5
C9
330
C6
100
AcDbEntity
  8
0
100
AcDbBlockEnd
  0
BLOCK
  5
CB
330
CA
100
AcDbEntity
  8
0
100
AcDbBlockBegin
  2
PX000467_1__23
 70
     0
 10
-1491.086392526922
 20
-1304.644480382
 30
0.0
  3
PX000467_1__23
  1

  0
LINE
  5
3A3
330
CA
100
AcDbEntity
  8
0
  6
CONTINUOUS
 62
     7
100
AcDbLine
 10
-1484.85336291417
 20
-1287.519372266189
 30
0.0
 11
-1482.9739776726
 21
-1288.20341255284
 31
0.0
  0
LINE
  5
3A4
330
CA
100
AcDbEntity
  8
0
  6
CONTINUOUS
 62
     7
100
AcDbLine
 10
-1482.9739776726
 20
-1288.20341255284
 30
0.0
 11
-1487.740086078314
 21
-1301.298187776197
 31
0.0
  0
LINE
  5
3A5
330
CA
100
AcDbEntity
  8
0
  6
CONTINUOUS
 62
     7
100
AcDbLine
 10
-1484.85336291417
 20
-1287.519372266189
 30
0.0
 11
-1491.086392526922
 21
-1304.644480382
 31
0.0
  0
ENDBLK
  5
CC
330
CA
100
AcDbEntity
  8
0
100
AcDbBlockEnd
  0
BLOCK
  5
CE
330
CD
100
AcDbEntity
  8
0
100
AcDbBlockBegin
  2
PX000466_1__24
 70
     0
 10
-1502.558510478939
 20
-1317.530729517059
 30
0.0
  3
PX000466_1__24
  1

  0
LINE
  5
3A6
330
CD
100
AcDbEntity
  8
0
  6
CONTINUOUS
 62
     1
100
AcDbLine
 10
-1501.144296916566
 20
-1314.702330546408
 30
0.0
 11
-1499.730111423995
 21
-1316.116516038979
 31
0.0
  0
LINE
  5
3A7
330
CD
100
AcDbEntity
  8
0
  6
CONTINUOUS
 62
     7
100
AcDbLine
 10
-1501.144296916566
 20
-1314.702330546408
 30
0.0
 11
-1502.558510478939
 21
-1316.116544108782
 31
0.0
  0
LINE
  5
3A8
330
CD
100
AcDbEntity
  8
0
  6
CONTINUOUS
 62
     7
100
AcDbLine
 10
-1502.558510478939
 20
-1316.116544108782
 30
0.0
 11
-1501.144325070661
 21
-1317.530729517059
 31
0.0
  0
LINE
  5
3A9
330
CD
100
AcDbEntity
  8
0
  6
CONTINUOUS
 62
     7
100
AcDbLine
 10
-1501.144296916566
 20
-1314.702330546408
 30
0.0
 11
-1478.516879918596
 21
-1292.074913548438
 31
0.0
  0
LINE
  5
3AA
330
CD
100
AcDbEntity
  8
0
  6
CONTINUOUS
 62
     7
100
AcDbLine
 10
-1477.102666356224
 20
-1290.660699986064
 30
0.0
 11
-1475.688479852127
 21
-1292.074886490161
 31
0.0
  0
LINE
  5
3AB
330
CD
100
AcDbEntity
  8
0
  6
CONTINUOUS
 62
     1
100
AcDbLine
 10
-1478.516879918596
 20
-1292.074913548438
 30
0.0
 11
-1477.102693498793
 21
-1293.489099968239
 31
0.0
  0
LINE
  5
3AC
330
CD
100
AcDbEntity
  8
0
  6
CONTINUOUS
 62
     7
100
AcDbLine
 10
-1477.102666356224
 20
-1290.660699986064
 30
0.0
 11
-1478.516879918596
 21
-1292.074913548438
 31
0.0
  0
ENDBLK
  5
CF
330
CD
100
AcDbEntity
  8
0
100
AcDbBlockEnd
  0
BLOCK
  5
D3
330
D0
100
AcDbEntity
  8
0
100
AcDbBlockBegin
  2
CM06100A01100_MANIGLIA__25
 70
     0
 10
-1502.558510478939
 20
-1317.530729517059
 30
0.0
  3
CM06100A01100_MANIGLIA__25
  1

  0
INSERT
  5
D1
330
D0
100
AcDbEntity
  8
0
100
AcDbBlockReference
  2
PX000467_1__23
 10
-1491.086392526922
 20
-1304.644480382
 30
0.0
  0
INSERT
  5
D2
330
D0
100
AcDbEntity
  8
0
100
AcDbBlockReference
  2
PX000466_1__24
 10
-1502.558510478939
 20
-1317.530729517059
 30
0.0
  0
ENDBLK
  5
D4
330
D0
100
AcDbEntity
  8
0
100
AcDbBlockEnd
  0
BLOCK
  5
D6
330
D5
100
AcDbEntity
  8
0
100
AcDbBlockBegin
  2
PX000466_1__26
 70
     0
 10
-1468.617354467667
 20
-1351.471883168106
 30
0.0
  3
PX000466_1__26
  1

  0
LINE
  5
3AD
330
D5
100
AcDbEntity
  8
0
  6
CONTINUOUS
 62
     7
100
AcDbLine
 10
-1467.203171419613
 20
-1351.471883168106
 30
0.0
 11
-1465.788957857239
 21
-1350.057669605732
 31
0.0
  0
LINE
  5
3AE
330
D5
100
AcDbEntity
  8
0
  6
CONTINUOUS
 62
     7
100
AcDbLine
 10
-1467.203171419613
 20
-1351.471883168106
 30
0.0
 11
-1468.617354467667
 21
-1350.057700120052
 31
0.0
  0
LINE
  5
3AF
330
D5
100
AcDbEntity
  8
0
  6
CONTINUOUS
 62
     1
100
AcDbLine
 10
-1465.788957857239
 20
-1350.057669605732
 30
0.0
 11
-1467.203140905293
 21
-1348.643486557678
 31
0.0
  0
LINE
  5
3B0
330
D5
100
AcDbEntity
  8
0
  6
CONTINUOUS
 62
     7
100
AcDbLine
 10
-1443.16154085927
 20
-1327.430252607763
 30
0.0
 11
-1465.788957857239
 21
-1350.057669605732
 31
0.0
  0
LINE
  5
3B1
330
D5
100
AcDbEntity
  8
0
  6
CONTINUOUS
 62
     1
100
AcDbLine
 10
-1443.16154085927
 20
-1327.430252607763
 30
0.0
 11
-1444.575723907324
 21
-1326.016069559709
 31
0.0
  0
LINE
  5
3B2
330
D5
100
AcDbEntity
  8
0
  6
CONTINUOUS
 62
     7
100
AcDbLine
 10
-1441.747327296895
 20
-1326.016039045391
 30
0.0
 11
-1443.16151034495
 21
-1324.601855997335
 31
0.0
  0
LINE
  5
3B3
330
D5
100
AcDbEntity
  8
0
  6
CONTINUOUS
 62
     7
100
AcDbLine
 10
-1443.16154085927
 20
-1327.430252607763
 30
0.0
 11
-1441.747327296895
 21
-1326.016039045391
 31
0.0
  0
ENDBLK
  5
D7
330
D5
100
AcDbEntity
  8
0
100
AcDbBlockEnd
  0
BLOCK
  5
D9
330
D8
100
AcDbEntity
  8
0
100
AcDbBlockBegin
  2
PX000467_1__27
 70
     0
 10
-1455.731011490685
 20
-1339.999730201372
 30
0.0
  3
PX000467_1__27
  1

  0
LINE
  5
3B4
330
D8
100
AcDbEntity
  8
0
  6
CONTINUOUS
 62
     7
100
AcDbLine
 10
-1438.605999577019
 20
-1333.766735603337
 30
0.0
 11
-1439.290039863671
 21
-1331.887350361767
 31
0.0
  0
LINE
  5
3B5
330
D8
100
AcDbEntity
  8
0
  6
CONTINUOUS
 62
     7
100
AcDbLine
 10
-1452.384724740665
 20
-1336.653425884094
 30
0.0
 11
-1439.290039863671
 21
-1331.887350361767
 31
0.0
  0
LINE
  5
3B6
330
D8
100
AcDbEntity
  8
0
  6
CONTINUOUS
 62
     7
100
AcDbLine
 10
-1455.731011490685
 20
-1339.999730201372
 30
0.0
 11
-1438.605999577019
 21
-1333.766735603337
 31
0.0
  0
ENDBLK
  5
DA
330
D8
100
AcDbEntity
  8
0
100
AcDbBlockEnd
  0
BLOCK
  5
DE
330
DB
100
AcDbEntity
  8
0
100
AcDbBlockBegin
  2
CM06100A01100_MANIGLIA__28
 70
     0
 10
-1468.617354467667
 20
-1351.471883168106
 30
0.0
  3
CM06100A01100_MANIGLIA__28
  1

  0
INSERT
  5
DC
330
DB
100
AcDbEntity
  8
0
100
AcDbBlockReference
  2
PX000466_1__26
 10
-1468.617354467667
 20
-1351.471883168106
 30
0.0
  0
INSERT
  5
DD
330
DB
100
AcDbEntity
  8
0
100
AcDbBlockReference
  2
PX000467_1__27
 10
-1455.731011490685
 20
-1339.999730201372
 30
0.0
  0
ENDBLK
  5
DF
330
DB
100
AcDbEntity
  8
0
100
AcDbBlockEnd
  0
BLOCK
  5
E4
330
E0
100
AcDbEntity
  8
0
100
AcDbBlockBegin
  2
PANNELLO__29
 70
     0
 10
-1556.884412286619
 20
-1405.79772547165
 30
0.0
  3
PANNELLO__29
  1

  0
INSERT
  5
E1
330
E0
100
AcDbEntity
  8
0
100
AcDbBlockReference
  2
PX001681_PANNELLO_1015__22
 10
-1556.884412286619
 20
-1405.79772547165
 30
0.0
  0
INSERT
  5
E2
330
E0
100
AcDbEntity
  8
0
100
AcDbBlockReference
  2
CM06100A01100_MANIGLIA__25
 10
-1502.558510478939
 20
-1317.530729517059
 30
0.0
  0
INSERT
  5
E3
330
E0
100
AcDbEntity
  8
0
100
AcDbBlockReference
  2
CM06100A01100_MANIGLIA__28
 10
-1468.617354467667
 20
-1351.471883168106
 30
0.0
  0
ENDBLK
  5
E5
330
E0
100
AcDbEntity
  8
0
100
AcDbBlockEnd
  0
BLOCK
  5
E8
330
E6
100
AcDbEntity
  8
0
100
AcDbBlockBegin
  2
PX001593_GRUPPO_ANTA_L__30
 70
     0
 10
-1556.884412286619
 20
-1405.79772547165
 30
0.0
  3
PX001593_GRUPPO_ANTA_L__30
  1

  0
INSERT
  5
E7
330
E6
100
AcDbEntity
  8
0
100
AcDbBlockReference
  2
PANNELLO__29
 10
-1556.884412286619
 20
-1405.79772547165
 30
0.0
  0
ENDBLK
  5
E9
330
E6
100
AcDbEntity
  8
0
100
AcDbBlockEnd
  0
BLOCK
  5
EF
330
EA
100
AcDbEntity
  8
0
100
AcDbBlockBegin
  2
TKKZ0TEC43200_TECNICO___31
 70
     0
 10
-1556.884412286619
 20
-1405.79772547165
 30
0.0
  3
TKKZ0TEC43200_TECNICO___31
  1

  0
INSERT
  5
EB
330
EA
100
AcDbEntity
  8
0
100
AcDbBlockReference
  2
PX004198_STIPITE_MONTA1__1
 10
-878.6969323913818
 20
-651.630279040779
 30
0.0
  0
INSERT
  5
EC
330
EA
100
AcDbEntity
  8
0
100
AcDbBlockReference
  2
00S0060A00100_CERNIERA__14
 10
-842.6969521547835
 20
-669.9103076528836
 30
0.0
  0
INSERT
  5
ED
330
EA
100
AcDbEntity
  8
0
100
AcDbBlockReference
  2
PX001692_TELAIO_BATTEN__20
 10
-843.9451216586131
 20
-651.6302790386826
 30
0.0
  0
INSERT
  5
EE
330
EA
100
AcDbEntity
  8
0
100
AcDbBlockReference
  2
PX001593_GRUPPO_ANTA_L__30
 10
-1556.884412286619
 20
-1405.79772547165
 30
0.0
  0
ENDBLK
  5
F0
330
EA
100
AcDbEntity
  8
0
100
AcDbBlockEnd
  0
BLOCK
  5
F3
330
F1
100
AcDbEntity
  8
0
100
AcDbBlockBegin
  2
GEN10
 70
     0
 10
-331.6968789999955
 20
-632.3959729999997
 30
0.0
  3
GEN10
  1

  0
INSERT
  5
F2
330
F1
100
AcDbEntity
  8
0
100
AcDbBlockReference
  2
TKKZ0TEC43200_TECNICO___31
 10
-1556.884412286619
 20
-1405.79772547165
 30
0.0
  0
MTEXT
  5
3B8
330
F1
100
AcDbEntity
  8
1
 62
     3
100
AcDbMText
 10
-352.600436925448
 20
-712.866234334931
 30
0.0
 40
5.0
 41
0.0
 71
     5
 72
     1
  1
APERTURA 135%%d
  7
CONVERTER_11
1001
ACAD
1000
MTEXTBEGIN
1070
    44
1040
0.96038415366146
1000
MTEXTEND
  0
DIMENSION
  5
3C1
330
F1
100
AcDbEntity
  8
1
100
AcDbDimension
  2
*D161
 10
-402.9289900849709
 20
-1538.276776622394
 30
0.0
 11
-441.8847400371861
 21
-1549.435734037901
 31
0.0
 70
    37
  1
<>
  3
ME10_DIM_10
100
AcDb3PointAngularDimension
 13
-808.8867581348113
 23
-690.3270427587495
 33
0.0
 14
181.3030674759503
 24
-651.6302790386826
 34
0.0
 15
-770.1899944147444
 25
-651.630279038683
 35
0.0
  0
ENDBLK
  5
F4
330
F1
100
AcDbEntity
  8
0
100
AcDbBlockEnd
  0
BLOCK
  5
F6
330
F5
100
AcDbEntity
  8
0
100
AcDbBlockBegin
  2
SCASSO_MONTANTE_S0043___32
 70
     0
 10
1508.243779234429
 20
-581.8220470348624
 30
0.0
  3
SCASSO_MONTANTE_S0043___32
  1

  0
LINE
  5
3C2
330
F5
100
AcDbEntity
  8
0
  6
CONTINUOUS
 62
     7
100
AcDbLine
 10
1543.243779234429
 20
-545.8220470348624
 30
0.0
 11
1543.243779265261
 21
-563.8220470353494
 31
0.0
  0
LINE
  5
3C3
330
F5
100
AcDbEntity
  8
0
  6
CONTINUOUS
 62
     7
100
AcDbLine
 10
1543.243779265261
 20
-563.8220470353494
 30
0.0
 11
1543.243779214811
 21
-579.8220470345536
 31
0.0
  0
LINE
  5
3C4
330
F5
100
AcDbEntity
  8
0
  6
CONTINUOUS
 62
     7
100
AcDbLine
 10
1541.243779214437
 20
-581.8220470345473
 30
0.0
 11
1508.243779234429
 21
-581.8220470348624
 31
0.0
  0
ARC
  5
3C5
330
F5
100
AcDbEntity
  8
0
  6
CONTINUOUS
 62
     7
100
AcDbCircle
 10
1541.243779214624
 20
-579.8220470343604
 30
0.0
 40
2.000000000186901
100
AcDbArc
 50
269.9999999946392
 51
359.9999999944633
  0
ENDBLK
  5
F7
330
F5
100
AcDbEntity
  8
0
100
AcDbBlockEnd
  0
BLOCK
  5
FA
330
F8
100
AcDbEntity
  8
0
100
AcDbBlockBegin
  2
PX004196_GRUPPO_N_3_SC__33
 70
     0
 10
1508.243779234429
 20
-581.8220470348624
 30
0.0
  3
PX004196_GRUPPO_N_3_SC__33
  1

  0
INSERT
  5
F9
330
F8
100
AcDbEntity
  8
0
100
AcDbBlockReference
  2
SCASSO_MONTANTE_S0043___32
 10
1508.243779234429
 20
-581.8220470348624
 30
0.0
  0
ENDBLK
  5
FB
330
F8
100
AcDbEntity
  8
0
100
AcDbBlockEnd
  0
BLOCK
  5
FE
330
FC
100
AcDbEntity
  8
0
100
AcDbBlockBegin
  2
FRESATE_CERNIERE_TELAI__34
 70
     0
 10
1508.243779234429
 20
-581.8220470348624
 30
0.0
  3
FRESATE_CERNIERE_TELAI__34
  1

  0
INSERT
  5
FD
330
FC
100
AcDbEntity
  8
0
100
AcDbBlockReference
  2
PX004196_GRUPPO_N_3_SC__33
 10
1508.243779234429
 20
-581.8220470348624
 30
0.0
  0
ENDBLK
  5
FF
330
FC
100
AcDbEntity
  8
0
100
AcDbBlockEnd
  0
BLOCK
  5
101
330
100
100
AcDbEntity
  8
0
100
AcDbBlockBegin
  2
PX001697_STIPITE_MONTA__35
 70
     0
 10
2554.243779216867
 20
-581.8220470345473
 30
0.0
  3
PX001697_STIPITE_MONTA__35
  1

  0
LINE
  5
3C6
330
100
100
AcDbEntity
  8
0
  6
CONTINUOUS
 62
     7
100
AcDbLine
 10
2596.243779209019
 20
-491.8220470344627
 30
0.0
 11
2554.243779216867
 21
-491.8220470345864
 31
0.0
  0
LINE
  5
3C7
330
100
100
AcDbEntity
  8
0
  6
CONTINUOUS
 62
     7
100
AcDbLine
 10
2567.243779214437
 20
-581.8220470345473
 30
0.0
 11
2596.243779209019
 21
-581.8220470344627
 31
0.0
  0
LINE
  5
3C8
330
100
100
AcDbEntity
  8
0
  6
CONTINUOUS
 62
     7
100
AcDbLine
 10
2554.243779216867
 20
-491.8220470345864
 30
0.0
 11
2554.243779216867
 21
-529.8220470346064
 31
0.0
  0
LINE
  5
3C9
330
100
100
AcDbEntity
  8
0
  6
CONTINUOUS
 62
     7
100
AcDbLine
 10
2596.243779209019
 20
-581.8220470344627
 30
0.0
 11
2596.243779209019
 21
-491.8220470344627
 31
0.0
  0
LINE
  5
3CA
330
100
100
AcDbEntity
  8
0
  6
CONTINUOUS
 62
     7
100
AcDbLine
 10
2565.243779214811
 20
-531.8220470345736
 30
0.0
 11
2556.243779216493
 21
-531.8220470346005
 31
0.0
  0
LINE
  5
3CB
330
100
100
AcDbEntity
  8
0
  6
CONTINUOUS
 62
     7
100
AcDbLine
 10
2565.243779214811
 20
-531.8220470345736
 30
0.0
 11
2565.243779214811
 21
-579.8220470345536
 31
0.0
  0
ARC
  5
3CC
330
100
100
AcDbEntity
  8
0
  6
CONTINUOUS
 62
     7
100
AcDbCircle
 10
2567.243779214624
 20
-579.8220470347337
 30
0.0
 40
1.999999999812644
100
AcDbArc
 50
179.9999999948411
 51
269.9999999946457
  0
ARC
  5
3CD
330
100
100
AcDbEntity
  8
0
  6
CONTINUOUS
 62
     7
100
AcDbCircle
 10
2556.24377921668
 20
-529.8220470347878
 30
0.0
 40
1.999999999813099
100
AcDbArc
 50
179.999999994802
 51
269.9999999946327
  0
ENDBLK
  5
102
330
100
100
AcDbEntity
  8
0
100
AcDbBlockEnd
  0
BLOCK
  5
105
330
103
100
AcDbEntity
  8
0
100
AcDbBlockBegin
  2
TELAIO__36
 70
     0
 10
2554.243779216867
 20
-581.8220470345473
 30
0.0
  3
TELAIO__36
  1

  0
INSERT
  5
104
330
103
100
AcDbEntity
  8
0
100
AcDbBlockReference
  2
PX001697_STIPITE_MONTA__35
 10
2554.243779216867
 20
-581.8220470345473
 30
0.0
  0
ENDBLK
  5
106
330
103
100
AcDbEntity
  8
0
100
AcDbBlockEnd
  0
BLOCK
  5
10A
330
107
100
AcDbEntity
  8
0
100
AcDbBlockBegin
  2
PX001692_TELAIO_BATTEN__37
 70
     0
 10
1508.243779234429
 20
-581.8220470348624
 30
0.0
  3
PX001692_TELAIO_BATTEN__37
  1

  0
INSERT
  5
108
330
107
100
AcDbEntity
  8
0
100
AcDbBlockReference
  2
FRESATE_CERNIERE_TELAI__34
 10
1508.243779234429
 20
-581.8220470348624
 30
0.0
  0
INSERT
  5
109
330
107
100
AcDbEntity
  8
0
100
AcDbBlockReference
  2
TELAIO__36
 10
2554.243779216867
 20
-581.8220470345473
 30
0.0
  0
ENDBLK
  5
10B
330
107
100
AcDbEntity
  8
0
100
AcDbBlockEnd
  0
BLOCK
  5
10D
330
10C
100
AcDbEntity
  8
0
100
AcDbBlockBegin
  2
PX004198_STIPITE_MONTA__38
 70
     0
 10
1507.243779208084
 20
-581.8220470348624
 30
0.0
  3
PX004198_STIPITE_MONTA__38
  1

  0
LINE
  5
3CE
330
10C
100
AcDbEntity
  8
0
  6
CONTINUOUS
 62
     7
100
AcDbLine
 10
1507.243779208084
 20
-491.8220470344477
 30
0.0
 11
1554.243779216867
 21
-491.8220470345864
 31
0.0
  0
LINE
  5
3CF
330
10C
100
AcDbEntity
  8
0
  6
CONTINUOUS
 62
     7
100
AcDbLine
 10
1543.243779234429
 20
-545.8220470348624
 30
0.0
 11
1543.243779265261
 21
-563.8220470353494
 31
0.0
  0
LINE
  5
3D0
330
10C
100
AcDbEntity
  8
0
  6
CONTINUOUS
 62
     7
100
AcDbLine
 10
1543.243779265261
 20
-563.8220470353494
 30
0.0
 11
1543.243779214811
 21
-579.8220470345536
 31
0.0
  0
LINE
  5
3D1
330
10C
100
AcDbEntity
  8
0
  6
CONTINUOUS
 62
     7
100
AcDbLine
 10
1543.243779214811
 20
-531.8220470345536
 30
0.0
 11
1543.243779234429
 21
-545.8220470348624
 31
0.0
  0
LINE
  5
3D2
330
10C
100
AcDbEntity
  8
0
  6
CONTINUOUS
 62
     7
100
AcDbLine
 10
1554.243779216867
 20
-529.8220470345864
 30
0.0
 11
1554.243779216867
 21
-491.8220470345864
 31
0.0
  0
LINE
  5
3D3
330
10C
100
AcDbEntity
  8
0
  6
CONTINUOUS
 62
     7
100
AcDbLine
 10
1507.243779208084
 20
-491.8220470344477
 30
0.0
 11
1507.243779208084
 21
-581.8220470344477
 31
0.0
  0
LINE
  5
3D4
330
10C
100
AcDbEntity
  8
0
  6
CONTINUOUS
 62
     7
100
AcDbLine
 10
1543.243779214811
 20
-531.8220470345536
 30
0.0
 11
1552.243779216493
 21
-531.8220470345805
 31
0.0
  0
LINE
  5
3D5
330
10C
100
AcDbEntity
  8
0
  6
CONTINUOUS
 62
     7
100
AcDbLine
 10
1541.243779214437
 20
-581.8220470345473
 30
0.0
 11
1508.243779234429
 21
-581.8220470348624
 31
0.0
  0
LINE
  5
3D6
330
10C
100
AcDbEntity
  8
0
  6
CONTINUOUS
 62
     7
100
AcDbLine
 10
1508.243779234429
 20
-581.8220470348624
 30
0.0
 11
1507.243779208084
 21
-581.8220470344477
 31
0.0
  0
ARC
  5
3D7
330
10C
100
AcDbEntity
  8
0
  6
CONTINUOUS
 62
     7
100
AcDbCircle
 10
1552.243779216679
 20
-529.8220470343936
 30
0.0
 40
2.000000000186901
100
AcDbArc
 50
269.9999999946717
 51
359.9999999944763
  0
ARC
  5
3D8
330
10C
100
AcDbEntity
  8
0
  6
CONTINUOUS
 62
     7
100
AcDbCircle
 10
1541.243779214624
 20
-579.8220470343604
 30
0.0
 40
2.000000000186901
100
AcDbArc
 50
269.9999999946392
 51
359.9999999944633
  0
ENDBLK
  5
10E
330
10C
100
AcDbEntity
  8
0
100
AcDbBlockEnd
  0
BLOCK
  5
110
330
10F
100
AcDbEntity
  8
0
100
AcDbBlockBegin
  2
PX007439_CORPO_REG_Y_C__39
 70
     0
 10
1543.243779214811
 20
-575.6879699096235
 30
0.0
  3
PX007439_CORPO_REG_Y_C__39
  1

  0
LINE
  5
3D9
330
10F
100
AcDbEntity
  8
0
  6
CONTINUOUS
 62
     7
100
AcDbLine
 10
1543.618779564794
 20
-570.6720470402124
 30
0.0
 11
1543.618779564798
 21
-569.5220470402137
 31
0.0
  0
LINE
  5
3DA
330
10F
100
AcDbEntity
  8
0
  6
CONTINUOUS
 62
     7
100
AcDbLine
 10
1543.618779564788
 20
-574.5220470402137
 30
0.0
 11
1543.618779564794
 21
-570.6720470402124
 31
0.0
  0
ARC
  5
3DB
330
10F
100
AcDbEntity
  8
0
  6
CONTINUOUS
 62
     7
100
AcDbCircle
 10
1541.618779564798
 20
-569.5220470402123
 30
0.0
 40
2.0
100
AcDbArc
 50
359.9999999999609
 51
15.9620141626932
  0
ARC
  5
3DC
330
10F
100
AcDbEntity
  8
0
  6
CONTINUOUS
 62
     7
100
AcDbCircle
 10
1541.618779564788
 20
-574.5220470402096
 30
0.0
 40
1.999999999999304
100
AcDbArc
 50
324.3408951053177
 51
359.9999999998827
  0
ARC
  5
3DD
330
10F
100
AcDbEntity
  8
0
  6
CONTINUOUS
 62
     7
100
AcDbCircle
 10
1541.618779564797
 20
-569.5220470402082
 30
0.0
 40
1.999999999999365
100
AcDbArc
 50
15.96201416257331
 51
35.65910489513056
  0
ENDBLK
  5
111
330
10F
100
AcDbEntity
  8
0
100
AcDbBlockEnd
  0
BLOCK
  5
114
330
112
100
AcDbEntity
  8
0
100
AcDbBlockBegin
  2
PD00700A24600_CORPO_RE__40
 70
     0
 10
1543.243779214811
 20
-575.6879699096235
 30
0.0
  3
PD00700A24600_CORPO_RE__40
  1

  0
INSERT
  5
113
330
112
100
AcDbEntity
  8
0
100
AcDbBlockReference
  2
PX007439_CORPO_REG_Y_C__39
 10
1543.243779214811
 20
-575.6879699096235
 30
0.0
  0
ENDBLK
  5
115
330
112
100
AcDbEntity
  8
0
100
AcDbBlockEnd
  0
BLOCK
  5
117
330
116
100
AcDbEntity
  8
0
100
AcDbBlockBegin
  2
PX007445_BIELLA_INTERN__41
 70
     0
 10
1543.243779214811
 20
-603.0799028077427
 30
0.0
  3
PX007445_BIELLA_INTERN__41
  1

  0
LINE
  5
3DE
330
116
100
AcDbEntity
  8
0
  6
CONTINUOUS
 62
     7
100
AcDbLine
 10
1546.646774433782
 20
-595.3338215219046
 30
0.0
 11
1545.908681816194
 21
-595.3338215219032
 31
0.0
  0
LINE
  5
3DF
330
116
100
AcDbEntity
  8
0
  6
CONTINUOUS
 62
     7
100
AcDbLine
 10
1546.324469276336
 20
-595.9827502782073
 30
0.0
 11
1546.407772294326
 21
-596.0380730360703
 31
0.0
  0
LINE
  5
3E0
330
116
100
AcDbEntity
  8
0
  6
CONTINUOUS
 62
     7
100
AcDbLine
 10
1545.908681816194
 20
-595.3338215219032
 30
0.0
 11
1544.714689965666
 21
-595.3338215218596
 31
0.0
  0
LINE
  5
3E1
330
116
100
AcDbEntity
  8
0
  6
CONTINUOUS
 62
     7
100
AcDbLine
 10
1552.969833685309
 20
-596.4313741398023
 30
0.0
 11
1549.118812971093
 21
-601.7654819491095
 31
0.0
  0
LINE
  5
3E2
330
116
100
AcDbEntity
  8
0
  6
CONTINUOUS
 62
     1
100
AcDbLine
 10
1549.118812971093
 20
-601.7654819491095
 30
0.0
 11
1548.374342363816
 21
-601.2280027995325
 31
0.0
  0
LINE
  5
3E3
330
116
100
AcDbEntity
  8
0
  6
CONTINUOUS
 62
     7
100
AcDbLine
 10
1556.328928875596
 20
-587.0532370330175
 30
0.0
 11
1553.128585785446
 21
-596.1280552991675
 31
0.0
  0
LINE
  5
3E4
330
116
100
AcDbEntity
  8
0
  6
CONTINUOUS
 62
     7
100
AcDbLine
 10
1543.243779214811
 20
-564.4617238848045
 30
0.0
 11
1546.733633199617
 21
-569.0520820050447
 31
0.0
  0
LINE
  5
3E5
330
116
100
AcDbEntity
  8
0
  6
CONTINUOUS
 62
     1
100
AcDbLine
 10
1544.537277850959
 20
-568.9720470402185
 30
0.0
 11
1543.243779214811
 21
-567.2706515108316
 31
0.0
  0
LINE
  5
3E6
330
116
100
AcDbEntity
  8
0
  6
CONTINUOUS
 62
     1
100
AcDbLine
 10
1544.714689965666
 20
-595.3338215218596
 30
0.0
 11
1543.908681481825
 21
-596.5474800634643
 31
0.0
  0
LINE
  5
3E7
330
116
100
AcDbEntity
  8
0
  6
CONTINUOUS
 62
     7
100
AcDbLine
 10
1544.714689965666
 20
-595.3338215218596
 30
0.0
 11
1543.908681481825
 21
-595.3338215218587
 31
0.0
  0
LINE
  5
3E8
330
116
100
AcDbEntity
  8
0
  6
CONTINUOUS
 62
     7
100
AcDbLine
 10
1546.324469276336
 20
-595.9827502782073
 30
0.0
 11
1543.908681481825
 21
-599.6203565196965
 31
0.0
  0
ARC
  5
3E9
330
116
100
AcDbEntity
  8
0
  6
CONTINUOUS
 62
     7
100
AcDbCircle
 10
1551.996898244429
 20
-595.7289521660045
 30
0.0
 40
1.200000000580824
100
AcDbArc
 50
324.1721640285215
 51
340.5741928582753
  0
ARC
  5
3EA
330
116
100
AcDbEntity
  8
0
  6
CONTINUOUS
 62
     1
100
AcDbCircle
 10
1551.84933235819
 20
-585.4734538019238
 30
0.0
 40
3.050000001383217
100
AcDbArc
 50
340.5741929365986
 51
29.62173479284411
  0
ARC
  5
3EB
330
116
100
AcDbEntity
  8
0
  6
CONTINUOUS
 62
     7
100
AcDbCircle
 10
1545.908681823163
 20
-593.8338215219574
 30
0.0
 40
1.499999999945885
100
AcDbArc
 50
269.9999997338036
 51
308.4690009153393
  0
ARC
  5
3EC
330
116
100
AcDbEntity
  8
0
  6
CONTINUOUS
 62
     7
100
AcDbCircle
 10
1543.90868181978
 20
-594.3783902940518
 30
0.0
 40
2.899999998967734
100
AcDbArc
 50
326.4112784703352
 51
340.7640550251753
  0
ARC
  5
3ED
330
116
100
AcDbEntity
  8
0
  6
CONTINUOUS
 62
     7
100
AcDbCircle
 10
1546.443240510105
 20
-599.8338215219114
 30
0.0
 40
3.30000000000008
100
AcDbArc
 50
280.3715467983875
 51
324.1721640244705
  0
ARC
  5
3EE
330
116
100
AcDbEntity
  8
0
  6
CONTINUOUS
 62
     7
100
AcDbCircle
 10
1551.849332358192
 20
-585.473453801957
 30
0.0
 40
4.750000001671288
100
AcDbArc
 50
340.5741929115837
 51
29.62173477086764
  0
SPLINE
  5
3EF
330
116
100
AcDbEntity
  8
0
  6
CONTINUOUS
 62
     1
100
AcDbSpline
210
0.0
220
0.0
230
1.0
 70
  1080
 71
     3
 72
    17
 73
    13
 74
    11
 42
0.000000001
 43
0.0000000001
 44
0.00000001
 40
0.0
 40
0.0
 40
0.0
 40
0.0
 40
0.0647970224584395
 40
0.1295940449133623
 40
0.3007372202429526
 40
0.4985281303984283
 40
0.5451721422966755
 40
0.6531309893671012
 40
0.8217353896274772
 40
1.050316061096465
 40
1.131370960971068
 40
1.213858843758842
 40
1.213858843758842
 40
1.213858843758842
 40
1.213858843758842
 10
1552.969833685309
 20
-596.4313741398023
 30
0.0
 10
1552.95180192817
 20
-596.4194841078896
 30
0.0
 10
1552.915738413896
 20
-596.3957040440619
 30
0.0
 10
1552.832049066587
 20
-596.3405197931264
 30
0.0
 10
1552.711350094589
 20
-596.2609316188082
 30
0.0
 10
1552.595702754079
 20
-596.1846744597832
 30
0.0
 10
1552.497638389128
 20
-596.120011408804
 30
0.0
 10
1552.407696064945
 20
-596.0607039825271
 30
0.0
 10
1552.267124290013
 20
-595.9680118016684
 30
0.0
 10
1552.13403936283
 20
-595.8802564030696
 30
0.0
 10
1552.024918995563
 20
-595.8083030908067
 30
0.0
 10
1551.979408204714
 20
-595.7782935497196
 30
0.0
 10
1551.956453423584
 20
-595.7631573054455
 30
0.0
 11
1552.969833685309
 21
-596.4313741398023
 31
0.0
 11
1552.915738413899
 21
-596.3957040440564
 31
0.0
 11
1552.861643142512
 21
-596.3600339482805
 31
0.0
 11
1552.718765643447
 21
-596.2658213868933
 31
0.0
 11
1552.553641497975
 21
-596.1569395209895
 31
0.0
 11
1552.514701120988
 21
-596.1312624711957
 31
0.0
 11
1552.424572548576
 21
-596.0718322339761
 31
0.0
 11
1552.283814525405
 21
-595.9790172421912
 31
0.0
 11
1552.092985796137
 21
-595.8531859287004
 31
0.0
 11
1552.025317766971
 21
-595.8085660382663
 31
0.0
 11
1551.956453423584
 21
-595.7631573054455
 31
0.0
  0
SPLINE
  5
3F0
330
116
100
AcDbEntity
  8
0
  6
CONTINUOUS
 62
     1
100
AcDbSpline
210
0.0
220
0.0
230
1.0
 70
  1080
 71
     3
 72
    15
 73
    11
 74
     9
 42
0.000000001
 43
0.0000000001
 44
0.00000001
 40
0.0
 40
0.0
 40
0.0
 40
0.0
 40
0.0647970224621961
 40
0.1295940449228732
 40
0.2860743314635055
 40
0.498528130417258
 40
0.7562971589603967
 40
1.050316061126405
 40
1.131990558062545
 40
1.215118580811156
 40
1.215118580811156
 40
1.215118580811156
 40
1.215118580811156
 10
1553.128585785446
 20
-596.1280552991675
 30
0.0
 10
1553.10853884509
 20
-596.1200155661619
 30
0.0
 10
1553.068444964379
 20
-596.10393610015
 30
0.0
 10
1552.979939121945
 20
-596.0684412400852
 30
0.0
 10
1552.845751140445
 20
-596.014625768752
 30
0.0
 10
1552.651861367888
 20
-595.93686716935
 30
0.0
 10
1552.41541981874
 20
-595.8420433761096
 30
0.0
 10
1552.219438845827
 20
-595.7634461104316
 30
0.0
 10
1552.077488408481
 20
-595.7065175419525
 30
0.0
 10
1552.026501709448
 20
-595.6860695613642
 30
0.0
 10
1552.000783513604
 20
-595.6757553974867
 30
0.0
 11
1553.128585785446
 21
-596.1280552991675
 31
0.0
 11
1553.068444964376
 21
-596.1039361001529
 31
0.0
 11
1553.008304143304
 21
-596.0798169011473
 31
0.0
 11
1552.86306825814
 21
-596.0215707189814
 31
0.0
 11
1552.665881019871
 21
-595.9424896861524
 31
0.0
 11
1552.426634825643
 21
-595.8465411029296
 31
0.0
 11
1552.153743610699
 21
-595.7370993392533
 31
0.0
 11
1552.077938101139
 21
-595.7066978891204
 31
0.0
 11
1552.000783513604
 21
-595.6757553974867
 31
0.0
  0
SPLINE
  5
3F1
330
116
100
AcDbEntity
  8
0
  6
CONTINUOUS
 62
     7
100
AcDbSpline
210
0.0
220
0.0
230
1.0
 70
  1064
 71
     3
 72
    11
 73
     7
 74
     5
 42
0.000000001
 43
0.0000000001
 44
0.00000001
 40
0.0
 40
0.0
 40
0.0
 40
0.0
 40
0.0125570261979984
 40
0.0251140524101526
 40
0.0971965067102736
 40
0.1699097831731435
 40
0.1699097831731435
 40
0.1699097831731435
 40
0.1699097831731435
 10
1546.646774433782
 20
-595.3338215219046
 30
0.0
 10
1546.650185828557
 20
-595.331396180068
 30
0.0
 10
1546.657008609757
 20
-595.3265454846518
 30
0.0
 10
1546.683371740166
 20
-595.3077128340847
 30
0.0
 10
1546.725896828763
 20
-595.2770066103275
 30
0.0
 10
1546.764666721074
 20
-595.2482583052358
 30
0.0
 10
1546.784136114912
 20
-595.2338215223112
 30
0.0
 11
1546.646774433782
 21
-595.3338215219046
 31
0.0
 11
1546.657005875116
 21
-595.3265416512648
 31
0.0
 11
1546.66722451486
 21
-595.3192438221295
 31
0.0
 11
1546.725636734121
 21
-595.2770076661175
 31
0.0
 11
1546.784136114912
 21
-595.2338215223112
 31
0.0
  0
ENDBLK
  5
118
330
116
100
AcDbEntity
  8
0
100
AcDbBlockEnd
  0
BLOCK
  5
11B
330
119
100
AcDbEntity
  8
0
100
AcDbBlockBegin
  2
PD05300A09100_BIELLA_I__42
 70
     0
 10
1543.243779214811
 20
-603.0799028077427
 30
0.0
  3
PD05300A09100_BIELLA_I__42
  1

  0
INSERT
  5
11A
330
119
100
AcDbEntity
  8
0
100
AcDbBlockReference
  2
PX007445_BIELLA_INTERN__41
 10
1543.243779214811
 20
-603.0799028077427
 30
0.0
  0
ENDBLK
  5
11C
330
119
100
AcDbEntity
  8
0
100
AcDbBlockEnd
  0
BLOCK
  5
11E
330
11D
100
AcDbEntity
  8
0
100
AcDbBlockBegin
  2
PX007446_BIELLA_INTERN__43
 70
     0
 10
1543.243779214811
 20
-607.4134580280015
 30
0.0
  3
PX007446_BIELLA_INTERN__43
  1

  0
LINE
  5
3F2
330
11D
100
AcDbEntity
  8
0
  6
CONTINUOUS
 62
     1
100
AcDbLine
 10
1554.500720213698
 20
-583.9659252124425
 30
0.0
 11
1547.402150513422
 21
-571.4812123720644
 31
0.0
  0
LINE
  5
3F3
330
11D
100
AcDbEntity
  8
0
  6
CONTINUOUS
 62
     7
100
AcDbLine
 10
1555.978542953316
 20
-583.1256633775383
 30
0.0
 11
1548.87997325304
 21
-570.6409505371594
 31
0.0
  0
LINE
  5
3F4
330
11D
100
AcDbEntity
  8
0
  6
CONTINUOUS
 62
     7
100
AcDbLine
 10
1551.140873027964
 20
-597.3711685375283
 30
0.0
 11
1556.085594101941
 21
-587.6220781116544
 31
0.0
  0
LINE
  5
3F5
330
11D
100
AcDbEntity
  8
0
  6
CONTINUOUS
 62
     1
100
AcDbLine
 10
1549.642405814943
 20
-596.5673515732897
 30
0.0
 11
1554.569458319656
 21
-586.8530967785596
 31
0.0
  0
LINE
  5
3F6
330
11D
100
AcDbEntity
  8
0
  6
CONTINUOUS
 62
     1
100
AcDbLine
 10
1547.402150513422
 20
-571.4812123720644
 30
0.0
 11
1548.87997325304
 21
-570.6409505371594
 31
0.0
  0
LINE
  5
3F7
330
11D
100
AcDbEntity
  8
0
  6
CONTINUOUS
 62
     7
100
AcDbLine
 10
1544.843779568076
 20
-585.4734537986346
 30
0.0
 11
1544.843779568078
 21
-583.2052245800746
 31
0.0
  0
LINE
  5
3F8
330
11D
100
AcDbEntity
  8
0
  6
CONTINUOUS
 62
     1
100
AcDbLine
 10
1546.011258525845
 20
-570.6720470286105
 30
0.0
 11
1546.011258523813
 21
-568.9720470402203
 31
0.0
  0
LINE
  5
3F9
330
11D
100
AcDbEntity
  8
0
  6
CONTINUOUS
 62
     7
100
AcDbLine
 10
1546.908681815859
 20
-591.5609126780823
 30
0.0
 11
1546.908681815857
 21
-594.3783903012013
 31
0.0
  0
LINE
  5
3FA
330
11D
100
AcDbEntity
  8
0
  6
CONTINUOUS
 62
     7
100
AcDbLine
 10
1544.843779568531
 20
-579.4104913867363
 30
0.0
 11
1544.843779568078
 21
-583.2052245800746
 31
0.0
  0
LINE
  5
3FB
330
11D
100
AcDbEntity
  8
0
  6
CONTINUOUS
 62
     1
100
AcDbLine
 10
1544.034925369178
 20
-570.6720470393825
 30
0.0
 11
1546.011258525845
 21
-570.6720470286105
 31
0.0
  0
LINE
  5
3FC
330
11D
100
AcDbEntity
  8
0
  6
CONTINUOUS
 62
     1
100
AcDbLine
 10
1543.908681481826
 20
-604.5092208938895
 30
0.0
 11
1549.642405814943
 21
-596.5673515732897
 31
0.0
  0
LINE
  5
3FD
330
11D
100
AcDbEntity
  8
0
  6
CONTINUOUS
 62
     1
100
AcDbLine
 10
1554.500720213698
 20
-583.9659252124425
 30
0.0
 11
1555.978542953316
 21
-583.1256633775383
 31
0.0
  0
LINE
  5
3FE
330
11D
100
AcDbEntity
  8
0
  6
CONTINUOUS
 62
     1
100
AcDbLine
 10
1554.569458319656
 20
-586.8530967785596
 30
0.0
 11
1556.085594101941
 21
-587.6220781116544
 31
0.0
  0
LINE
  5
3FF
330
11D
100
AcDbEntity
  8
0
  6
CONTINUOUS
 62
     7
100
AcDbLine
 10
1543.980103517382
 20
-576.9137054673674
 30
0.0
 11
1544.713893680535
 21
-578.7391354059855
 31
0.0
  0
LINE
  5
400
330
11D
100
AcDbEntity
  8
0
  6
CONTINUOUS
 62
     1
100
AcDbLine
 10
1544.034925369178
 20
-570.6720470393825
 30
0.0
 11
1543.618779564794
 21
-570.6720470402124
 31
0.0
  0
LINE
  5
401
330
11D
100
AcDbEntity
  8
0
  6
CONTINUOUS
 62
     7
100
AcDbLine
 10
1546.011258523813
 20
-568.9720470402203
 30
0.0
 11
1543.541668017102
 21
-568.9720470402176
 31
0.0
  0
LINE
  5
402
330
11D
100
AcDbEntity
  8
0
  6
CONTINUOUS
 62
     7
100
AcDbLine
 10
1543.243779214811
 20
-576.7720470402123
 30
0.0
 11
1543.343779565729
 21
-576.7720470402246
 31
0.0
  0
LINE
  5
403
330
11D
100
AcDbEntity
  8
0
  6
CONTINUOUS
 62
     7
100
AcDbLine
 10
1543.908681481826
 20
-607.4134580280015
 30
0.0
 11
1551.043594969936
 21
-597.5307801655395
 31
0.0
  0
LINE
  5
404
330
11D
100
AcDbEntity
  8
0
  6
CONTINUOUS
 62
     7
100
AcDbLine
 10
1544.843779568531
 20
-579.4104913867363
 30
0.0
 11
1544.843779565728
 21
-578.2720470402255
 31
0.0
  0
LINE
  5
405
330
11D
100
AcDbEntity
  8
0
  6
CONTINUOUS
 62
     1
100
AcDbLine
 10
1544.713893680535
 20
-578.7391354059855
 30
0.0
 11
1544.843779565727
 21
-578.6869236048697
 31
0.0
  0
LINE
  5
406
330
11D
100
AcDbEntity
  8
0
  6
CONTINUOUS
 62
     7
100
AcDbLine
 10
1546.407772294326
 20
-596.0380730360703
 30
0.0
 11
1543.908681481825
 21
-599.8011139613795
 31
0.0
  0
ARC
  5
407
330
11D
100
AcDbEntity
  8
0
  6
CONTINUOUS
 62
     1
100
AcDbCircle
 10
1551.84933235819
 20
-585.4734538019238
 30
0.0
 40
3.050000001383217
100
AcDbArc
 50
340.5741929365986
 51
29.62173479284411
  0
ARC
  5
408
330
11D
100
AcDbEntity
  8
0
  6
CONTINUOUS
 62
     1
100
AcDbCircle
 10
1551.849332366249
 20
-585.4734537790719
 30
0.0
 40
3.05000000138257
100
AcDbArc
 50
333.1059583166284
 51
340.5741924813998
  0
ARC
  5
409
330
11D
100
AcDbEntity
  8
0
  6
CONTINUOUS
 62
     7
100
AcDbCircle
 10
1546.011258523809
 20
-572.2720470402205
 30
0.0
 40
3.300000000000774
100
AcDbArc
 50
29.62173473589618
 51
89.99999999992895
  0
ARC
  5
40A
330
11D
100
AcDbEntity
  8
0
  6
CONTINUOUS
 62
     7
100
AcDbCircle
 10
1543.908681815859
 20
-591.5609126780805
 30
0.0
 40
3.0
100
AcDbArc
 50
359.9999999999652
 51
37.47448353083495
  0
ARC
  5
40B
330
11D
100
AcDbEntity
  8
0
  6
CONTINUOUS
 62
     7
100
AcDbCircle
 10
1551.849332358148
 20
-585.4734537993545
 30
0.0
 40
7.005552790072215
100
AcDbArc
 50
179.9999999941125
 51
217.4744835366573
  0
ARC
  5
40C
330
11D
100
AcDbEntity
  8
0
  6
CONTINUOUS
 62
     7
100
AcDbCircle
 10
1543.908681815857
 20
-594.3783903012009
 30
0.0
 40
2.999999999999522
100
AcDbArc
 50
326.4112786526233
 51
359.9999999999913
  0
ARC
  5
40D
330
11D
100
AcDbEntity
  8
0
  6
CONTINUOUS
 62
     1
100
AcDbCircle
 10
1546.011258513596
 20
-572.2720470342788
 30
0.0
 40
1.600000005668609
100
AcDbArc
 50
29.62173437594118
 51
89.99999956136233
  0
ARC
  5
40E
330
11D
100
AcDbEntity
  8
0
  6
CONTINUOUS
 62
     7
100
AcDbCircle
 10
1550.070659534608
 20
-596.8283581846526
 30
0.0
 40
1.200000000229142
100
AcDbArc
 50
324.172163598927
 51
333.1059587147377
  0
ARC
  5
40F
330
11D
100
AcDbEntity
  8
0
  6
CONTINUOUS
 62
     7
100
AcDbCircle
 10
1551.849332358192
 20
-585.473453801957
 30
0.0
 40
4.750000001671288
100
AcDbArc
 50
340.5741929115837
 51
29.62173477086764
  0
ARC
  5
410
330
11D
100
AcDbEntity
  8
0
  6
CONTINUOUS
 62
     7
100
AcDbCircle
 10
1551.849332366295
 20
-585.4734537789627
 30
0.0
 40
4.750000001677351
100
AcDbArc
 50
333.1059584594196
 51
340.5741926175029
  0
ARC
  5
411
330
11D
100
AcDbEntity
  8
0
  6
CONTINUOUS
 62
     7
100
AcDbCircle
 10
1543.343779565728
 20
-578.2720470402246
 30
0.0
 40
1.5
100
AcDbArc
 50
359.9999999999652
 51
89.99999999996527
  0
ARC
  5
412
330
11D
100
AcDbEntity
  8
0
  6
CONTINUOUS
 62
     7
100
AcDbCircle
 10
1543.04377956853
 20
-579.4104913867336
 30
0.0
 40
1.800000000001091
100
AcDbArc
 50
359.9999999999131
 51
21.89924429810094
  0
SPLINE
  5
413
330
11D
100
AcDbEntity
  8
0
  6
CONTINUOUS
 62
     1
100
AcDbSpline
210
0.0
220
0.0
230
1.0
 70
  1064
 71
     3
 72
    23
 73
    19
 74
    17
 42
0.000000001
 43
0.0000000001
 44
0.00000001
 40
0.0
 40
0.0
 40
0.0
 40
0.0
 40
0.1668414799422042
 40
0.3318701431213791
 40
0.4133311710192938
 40
0.4938907866951344
 40
0.533722358258287
 40
0.5732318301301926
 40
0.6122989905491343
 40
0.6509983914458765
 40
0.9179349474240716
 40
1.102150746869134
 40
1.201047624779324
 40
1.301255872298214
 40
1.436027829751106
 40
1.570622801810591
 40
1.635535758317715
 40
1.700448714825968
 40
1.700448714825968
 40
1.700448714825968
 40
1.700448714825968
 10
1549.642405814943
 20
-596.5673515732897
 30
0.0
 10
1549.688256116209
 20
-596.5988261377621
 30
0.0
 10
1549.779458540438
 20
-596.6614332675763
 30
0.0
 10
1549.892949901851
 20
-596.739550065663
 30
0.0
 10
1549.982755336115
 20
-596.8013527083181
 30
0.0
 10
1550.038189956807
 20
-596.8394860182589
 30
0.0
 10
1550.082110560654
 20
-596.8696836006285
 30
0.0
 10
1550.114633904147
 20
-596.8920457509171
 30
0.0
 10
1550.146846140847
 20
-596.9141942753772
 30
0.0
 10
1550.241525928518
 20
-596.9792940955938
 30
0.0
 10
1550.376073729383
 20
-597.0718064051134
 30
0.0
 10
1550.527156019393
 20
-597.1756874449285
 30
0.0
 10
1550.632442960841
 20
-597.2480805623823
 30
0.0
 10
1550.724149138957
 20
-597.3111358278522
 30
0.0
 10
1550.825660530299
 20
-597.3809329531737
 30
0.0
 10
1550.917477344508
 20
-597.4440642940897
 30
0.0
 10
1550.99010595966
 20
-597.494002214233
 30
0.0
 10
1551.025765297102
 20
-597.5185208524243
 30
0.0
 10
1551.043594969936
 20
-597.5307801655395
 30
0.0
 11
1549.642405814943
 21
-596.5673515732897
 31
0.0
 11
1549.779936903504
 21
-596.6618040963219
 31
0.0
 11
1549.915897400825
 21
-596.7553412698885
 31
0.0
 11
1549.983004358528
 21
-596.8015208681335
 31
0.0
 11
1550.049377486173
 21
-596.8471767506066
 31
0.0
 11
1550.082198968618
 21
-596.8697445237203
 31
0.0
 11
1550.114755366427
 21
-596.8921293250214
 31
0.0
 11
1550.146947153371
 21
-596.9142637298377
 31
0.0
 11
1550.178835902263
 21
-596.9361897719764
 31
0.0
 11
1550.398794676985
 21
-597.0874288619641
 31
0.0
 11
1550.55059060236
 21
-597.1918005909181
 31
0.0
 11
1550.632082760712
 21
-597.2478329082674
 31
0.0
 11
1550.714655502618
 21
-597.3046082124488
 31
0.0
 11
1550.825709136773
 21
-597.3809663872357
 31
0.0
 11
1550.936616932943
 21
-597.4572242868417
 31
0.0
 11
1550.990105951438
 21
-597.4940022261939
 31
0.0
 11
1551.043594969936
 21
-597.5307801655395
 31
0.0
  0
SPLINE
  5
414
330
11D
100
AcDbEntity
  8
0
  6
CONTINUOUS
 62
     1
100
AcDbSpline
210
0.0
220
0.0
230
1.0
 70
  1064
 71
     3
 72
    23
 73
    19
 74
    17
 42
0.000000001
 43
0.0000000001
 44
0.00000001
 40
0.0
 40
0.0
 40
0.0
 40
0.0
 40
0.1668414799038095
 40
0.3318701431221431
 40
0.4133311712389008
 40
0.493890786696603
 40
0.5337223582589183
 40
0.5732318301318798
 40
0.6122989905498935
 40
0.6509983914477762
 40
0.9028258712902866
 40
1.085848105452078
 40
1.201047624784843
 40
1.382800861576366
 40
1.502263767148224
 40
1.570622801821813
 40
1.635535758332198
 40
1.700448714844307
 40
1.700448714844307
 40
1.700448714844307
 40
1.700448714844307
 10
1549.642405814943
 20
-596.5673515732897
 30
0.0
 10
1549.691393826767
 20
-596.5936778535238
 30
0.0
 10
1549.788837564041
 20
-596.6460443786609
 30
0.0
 10
1549.91028142264
 20
-596.711112900141
 30
0.0
 10
1550.006369883167
 20
-596.7626064960423
 30
0.0
 10
1550.065668728171
 20
-596.7943994745062
 30
0.0
 10
1550.112637368051
 20
-596.819595908447
 30
0.0
 10
1550.147418455484
 20
-596.8382536037602
 30
0.0
 10
1550.181867090515
 20
-596.8567326966382
 30
0.0
 10
1550.278681889986
 20
-596.9086667182376
 30
0.0
 10
1550.417782017868
 20
-596.9832836317482
 30
0.0
 10
1550.579353242523
 20
-597.0699546658454
 30
0.0
 10
1550.720340892534
 20
-597.145584123806
 30
0.0
 10
1550.842658651931
 20
-597.2111985657507
 30
0.0
 10
1550.951217506834
 20
-597.2694323729268
 30
0.0
 10
1551.02545574884
 20
-597.3092557034029
 30
0.0
 10
1551.083670508308
 20
-597.3404836280763
 30
0.0
 10
1551.121805523716
 20
-597.360940230082
 30
0.0
 10
1551.140873027964
 20
-597.3711685375283
 30
0.0
 11
1549.642405814943
 21
-596.5673515732897
 31
0.0
 11
1549.789386392431
 21
-596.6462995894551
 31
0.0
 11
1549.934833596427
 21
-596.7242711902672
 31
0.0
 11
1550.00663347196
 21
-596.7627507559524
 31
0.0
 11
1550.077631550753
 21
-596.8008181232153
 31
0.0
 11
1550.112732034297
 21
-596.8196465630891
 31
0.0
 11
1550.14754840291
 21
-596.8383232556316
 31
0.0
 11
1550.18197511617
 21
-596.8567906441103
 31
0.0
 11
1550.216077752855
 21
-596.8750841894475
 31
0.0
 11
1550.437992843352
 21
-596.9941252420871
 31
0.0
 11
1550.599275463036
 21
-597.080641453201
 31
0.0
 11
1550.700791436489
 21
-597.1350972737205
 31
0.0
 11
1550.860955791932
 21
-597.2210136186707
 31
0.0
 11
1550.966228741171
 21
-597.2774847791534
 31
0.0
 11
1551.026468002496
 21
-597.3097986928215
 31
0.0
 11
1551.083670515224
 21
-597.3404836151851
 31
0.0
 11
1551.140873027964
 21
-597.3711685375283
 31
0.0
  0
ENDBLK
  5
11F
330
11D
100
AcDbEntity
  8
0
100
AcDbBlockEnd
  0
BLOCK
  5
122
330
120
100
AcDbEntity
  8
0
100
AcDbBlockBegin
  2
PD05300A09200_BIELLA_I__44
 70
     0
 10
1543.243779214811
 20
-607.4134580280015
 30
0.0
  3
PD05300A09200_BIELLA_I__44
  1

  0
INSERT
  5
121
330
120
100
AcDbEntity
  8
0
100
AcDbBlockReference
  2
PX007446_BIELLA_INTERN__43
 10
1543.243779214811
 20
-607.4134580280015
 30
0.0
  0
ENDBLK
  5
123
330
120
100
AcDbEntity
  8
0
100
AcDbBlockEnd
  0
BLOCK
  5
127
330
124
100
AcDbEntity
  8
0
100
AcDbBlockBegin
  2
GFS0060A00100_GRUPPO_B__45
 70
     0
 10
1543.243779214811
 20
-607.4134580280015
 30
0.0
  3
GFS0060A00100_GRUPPO_B__45
  1

  0
INSERT
  5
125
330
124
100
AcDbEntity
  8
0
100
AcDbBlockReference
  2
PD05300A09100_BIELLA_I__42
 10
1543.243779214811
 20
-603.0799028077427
 30
0.0
  0
INSERT
  5
126
330
124
100
AcDbEntity
  8
0
100
AcDbBlockReference
  2
PD05300A09200_BIELLA_I__44
 10
1543.243779214811
 20
-607.4134580280015
 30
0.0
  0
ENDBLK
  5
128
330
124
100
AcDbEntity
  8
0
100
AcDbBlockEnd
  0
BLOCK
  5
12B
330
129
100
AcDbEntity
  8
0
100
AcDbBlockBegin
  2
GFS0060A00200_GRUPPO_B__46
 70
     0
 10
1543.243779214811
 20
-607.4134580280015
 30
0.0
  3
GFS0060A00200_GRUPPO_B__46
  1

  0
INSERT
  5
12A
330
129
100
AcDbEntity
  8
0
100
AcDbBlockReference
  2
GFS0060A00100_GRUPPO_B__45
 10
1543.243779214811
 20
-607.4134580280015
 30
0.0
  0
ENDBLK
  5
12C
330
129
100
AcDbEntity
  8
0
100
AcDbBlockEnd
  0
BLOCK
  5
130
330
12D
100
AcDbEntity
  8
0
100
AcDbBlockBegin
  2
GFS0060A00300_GRUPPO_B__47
 70
     0
 10
1543.243779214811
 20
-607.4134580280015
 30
0.0
  3
GFS0060A00300_GRUPPO_B__47
  1

  0
INSERT
  5
12E
330
12D
100
AcDbEntity
  8
0
100
AcDbBlockReference
  2
PD00700A24600_CORPO_RE__40
 10
1543.243779214811
 20
-575.6879699096235
 30
0.0
  0
INSERT
  5
12F
330
12D
100
AcDbEntity
  8
0
100
AcDbBlockReference
  2
GFS0060A00200_GRUPPO_B__46
 10
1543.243779214811
 20
-607.4134580280015
 30
0.0
  0
ENDBLK
  5
131
330
12D
100
AcDbEntity
  8
0
100
AcDbBlockEnd
  0
BLOCK
  5
134
330
132
100
AcDbEntity
  8
0
100
AcDbBlockBegin
  2
GFS0060A00400_GRUPPO_B__48
 70
     0
 10
1543.243779214811
 20
-607.4134580280015
 30
0.0
  3
GFS0060A00400_GRUPPO_B__48
  1

  0
INSERT
  5
133
330
132
100
AcDbEntity
  8
0
100
AcDbBlockReference
  2
GFS0060A00300_GRUPPO_B__47
 10
1543.243779214811
 20
-607.4134580280015
 30
0.0
  0
ENDBLK
  5
135
330
132
100
AcDbEntity
  8
0
100
AcDbBlockEnd
  0
BLOCK
  5
138
330
136
100
AcDbEntity
  8
0
100
AcDbBlockBegin
  2
GFS0060A00500_GRUPPO_C__49
 70
     0
 10
1543.243779214811
 20
-607.4134580280015
 30
0.0
  3
GFS0060A00500_GRUPPO_C__49
  1

  0
INSERT
  5
137
330
136
100
AcDbEntity
  8
0
100
AcDbBlockReference
  2
GFS0060A00400_GRUPPO_B__48
 10
1543.243779214811
 20
-607.4134580280015
 30
0.0
  0
ENDBLK
  5
139
330
136
100
AcDbEntity
  8
0
100
AcDbBlockEnd
  0
BLOCK
  5
13C
330
13A
100
AcDbEntity
  8
0
100
AcDbBlockBegin
  2
GFS0060A00700_GRUPPO_C__50
 70
     0
 10
1543.243779214811
 20
-607.4134580280015
 30
0.0
  3
GFS0060A00700_GRUPPO_C__50
  1

  0
INSERT
  5
13B
330
13A
100
AcDbEntity
  8
0
100
AcDbBlockReference
  2
GFS0060A00500_GRUPPO_C__49
 10
1543.243779214811
 20
-607.4134580280015
 30
0.0
  0
ENDBLK
  5
13D
330
13A
100
AcDbEntity
  8
0
100
AcDbBlockEnd
  0
BLOCK
  5
140
330
13E
100
AcDbEntity
  8
0
100
AcDbBlockBegin
  2
00S0060A00100_CERNIERA__51
 70
     0
 10
1543.243779214811
 20
-607.4134580280015
 30
0.0
  3
00S0060A00100_CERNIERA__51
  1

  0
INSERT
  5
13F
330
13E
100
AcDbEntity
  8
0
100
AcDbBlockReference
  2
GFS0060A00700_GRUPPO_C__50
 10
1543.243779214811
 20
-607.4134580280015
 30
0.0
  0
ENDBLK
  5
141
330
13E
100
AcDbEntity
  8
0
100
AcDbBlockEnd
  0
BLOCK
  5
143
330
142
100
AcDbEntity
  8
0
100
AcDbBlockBegin
  2
SCASSO_PORTA_S0043_3__52
 70
     0
 10
1505.908681481834
 20
-627.2838215164966
 30
0.0
  3
SCASSO_PORTA_S0043_3__52
  1

  0
LINE
  5
415
330
142
100
AcDbEntity
  8
0
  6
CONTINUOUS
 62
     7
100
AcDbLine
 10
1505.908681481834
 20
-591.2838215165025
 30
0.0
 11
1541.908681481823
 21
-591.2838215165016
 31
0.0
  0
LINE
  5
416
330
142
100
AcDbEntity
  8
0
  6
CONTINUOUS
 62
     7
100
AcDbLine
 10
1543.908681481841
 20
-627.2838215164966
 30
0.0
 11
1543.908681481838
 21
-609.2838215164975
 31
0.0
  0
LINE
  5
417
330
142
100
AcDbEntity
  8
0
  6
CONTINUOUS
 62
     7
100
AcDbLine
 10
1543.908681481838
 20
-609.2838215164975
 30
0.0
 11
1543.908681481825
 21
-593.2838215165007
 31
0.0
  0
ARC
  5
418
330
142
100
AcDbEntity
  8
0
  6
CONTINUOUS
 62
     7
100
AcDbCircle
 10
1541.908681481825
 20
-593.2838215165016
 30
0.0
 40
2.0
100
AcDbArc
 50
0.00000000002606
 51
90.00000000005863
  0
ENDBLK
  5
144
330
142
100
AcDbEntity
  8
0
100
AcDbBlockEnd
  0
BLOCK
  5
147
330
145
100
AcDbEntity
  8
0
100
AcDbBlockBegin
  2
PX004194_GRUPPO_N_3_SC__53
 70
     0
 10
1505.908681481834
 20
-627.2838215164966
 30
0.0
  3
PX004194_GRUPPO_N_3_SC__53
  1

  0
INSERT
  5
146
330
145
100
AcDbEntity
  8
0
100
AcDbBlockReference
  2
SCASSO_PORTA_S0043_3__52
 10
1505.908681481834
 20
-627.2838215164966
 30
0.0
  0
ENDBLK
  5
148
330
145
100
AcDbEntity
  8
0
100
AcDbBlockEnd
  0
BLOCK
  5
14B
330
149
100
AcDbEntity
  8
0
100
AcDbBlockBegin
  2
FRESATE_CERNIERE_TELAI__54
 70
     0
 10
1505.908681481834
 20
-627.2838215164966
 30
0.0
  3
FRESATE_CERNIERE_TELAI__54
  1

  0
INSERT
  5
14A
330
149
100
AcDbEntity
  8
0
100
AcDbBlockReference
  2
PX004194_GRUPPO_N_3_SC__53
 10
1505.908681481834
 20
-627.2838215164966
 30
0.0
  0
ENDBLK
  5
14C
330
149
100
AcDbEntity
  8
0
100
AcDbBlockEnd
  0
BLOCK
  5
14E
330
14D
100
AcDbEntity
  8
0
100
AcDbBlockBegin
  2
PX000467_1__55
 70
     0
 10
625.1327501625847
 20
-646.9856457443525
 30
0.0
  3
PX000467_1__55
  1

  0
LINE
  5
419
330
14D
100
AcDbEntity
  8
0
  6
CONTINUOUS
 62
     7
100
AcDbLine
 10
625.1327501625847
 20
-639.2838215166585
 30
0.0
 11
641.6493655194463
 21
-646.9856457443525
 31
0.0
  0
LINE
  5
41A
330
14D
100
AcDbEntity
  8
0
  6
CONTINUOUS
 62
     7
100
AcDbLine
 10
629.8651533288885
 20
-639.2838215166576
 30
0.0
 11
642.4946020429261
 21
-645.1730301702814
 31
0.0
  0
LINE
  5
41B
330
14D
100
AcDbEntity
  8
0
  6
CONTINUOUS
 62
     7
100
AcDbLine
 10
641.6493655194463
 20
-646.9856457443525
 30
0.0
 11
642.4946020429261
 21
-645.1730301702814
 31
0.0
  0
ENDBLK
  5
14F
330
14D
100
AcDbEntity
  8
0
100
AcDbBlockEnd
  0
BLOCK
  5
151
330
150
100
AcDbEntity
  8
0
100
AcDbBlockBegin
  2
PX000466_1__56
 70
     0
 10
608.9086814818338
 20
-639.2838215166603
 30
0.0
  3
PX000466_1__56
  1

  0
LINE
  5
41C
330
150
100
AcDbEntity
  8
0
  6
CONTINUOUS
 62
     7
100
AcDbLine
 10
641.9086814818356
 20
-637.2838215166566
 30
0.0
 11
610.9086814818338
 21
-637.2838215166616
 31
0.0
  0
LINE
  5
41D
330
150
100
AcDbEntity
  8
0
  6
CONTINUOUS
 62
     1
100
AcDbLine
 10
642.9086814818356
 20
-639.2838215166544
 30
0.0
 11
642.9086814818356
 21
-637.2838215166553
 31
0.0
  0
LINE
  5
41E
330
150
100
AcDbEntity
  8
0
  6
CONTINUOUS
 62
     7
100
AcDbLine
 10
644.9086814818356
 20
-637.2838215166566
 30
0.0
 11
642.9086814818356
 21
-637.2838215166553
 31
0.0
  0
LINE
  5
41F
330
150
100
AcDbEntity
  8
0
  6
CONTINUOUS
 62
     7
100
AcDbLine
 10
642.9086814818356
 20
-637.2838215166553
 30
0.0
 11
641.9086814818356
 21
-637.2838215166566
 31
0.0
  0
LINE
  5
420
330
150
100
AcDbEntity
  8
0
  6
CONTINUOUS
 62
     7
100
AcDbLine
 10
608.9086814818338
 20
-637.2838215166616
 30
0.0
 11
610.9086814818338
 21
-637.2838215166616
 31
0.0
  0
LINE
  5
421
330
150
100
AcDbEntity
  8
0
  6
CONTINUOUS
 62
     7
100
AcDbLine
 10
644.9086814818356
 20
-639.2838215166576
 30
0.0
 11
644.9086814818356
 21
-637.2838215166566
 31
0.0
  0
LINE
  5
422
330
150
100
AcDbEntity
  8
0
  6
CONTINUOUS
 62
     7
100
AcDbLine
 10
644.9086814818356
 20
-639.2838215166576
 30
0.0
 11
642.9086814818356
 21
-639.2838215166544
 31
0.0
  0
LINE
  5
423
330
150
100
AcDbEntity
  8
0
  6
CONTINUOUS
 62
     1
100
AcDbLine
 10
610.9086814818338
 20
-639.2838215166603
 30
0.0
 11
610.9086814818338
 21
-637.2838215166616
 31
0.0
  0
LINE
  5
424
330
150
100
AcDbEntity
  8
0
  6
CONTINUOUS
 62
     7
100
AcDbLine
 10
642.9086814818356
 20
-639.2838215166544
 30
0.0
 11
610.9086814818338
 21
-639.2838215166603
 31
0.0
  0
LINE
  5
425
330
150
100
AcDbEntity
  8
0
  6
CONTINUOUS
 62
     7
100
AcDbLine
 10
608.9086814818338
 20
-639.2838215166603
 30
0.0
 11
610.9086814818338
 21
-639.2838215166603
 31
0.0
  0
LINE
  5
426
330
150
100
AcDbEntity
  8
0
  6
CONTINUOUS
 62
     7
100
AcDbLine
 10
608.9086814818338
 20
-639.2838215166603
 30
0.0
 11
608.9086814818338
 21
-637.2838215166616
 31
0.0
  0
ENDBLK
  5
152
330
150
100
AcDbEntity
  8
0
100
AcDbBlockEnd
  0
BLOCK
  5
156
330
153
100
AcDbEntity
  8
0
100
AcDbBlockBegin
  2
CM06100A01100_MANIGLIA__57
 70
     0
 10
608.9086814818338
 20
-646.9856457443525
 30
0.0
  3
CM06100A01100_MANIGLIA__57
  1

  0
INSERT
  5
154
330
153
100
AcDbEntity
  8
0
100
AcDbBlockReference
  2
PX000467_1__55
 10
625.1327501625847
 20
-646.9856457443525
 30
0.0
  0
INSERT
  5
155
330
153
100
AcDbEntity
  8
0
100
AcDbBlockReference
  2
PX000466_1__56
 10
608.9086814818338
 20
-639.2838215166603
 30
0.0
  0
ENDBLK
  5
157
330
153
100
AcDbEntity
  8
0
100
AcDbBlockEnd
  0
BLOCK
  5
159
330
158
100
AcDbEntity
  8
0
100
AcDbBlockBegin
  2
PX001595_PX001297_1187__58
 70
     0
 10
528.9086814818229
 20
-637.2838215166726
 30
0.0
  3
PX001595_PX001297_1187__58
  1

  0
LINE
  5
427
330
158
100
AcDbEntity
  8
0
  6
CONTINUOUS
 62
     7
100
AcDbLine
 10
641.9086814818356
 20
-637.2838215166566
 30
0.0
 11
610.9086814818338
 21
-637.2838215166616
 31
0.0
  0
LINE
  5
428
330
158
100
AcDbEntity
  8
0
  6
CONTINUOUS
 62
     7
100
AcDbLine
 10
644.9086814818356
 20
-637.2838215166566
 30
0.0
 11
642.9086814818356
 21
-637.2838215166553
 31
0.0
  0
LINE
  5
429
330
158
100
AcDbEntity
  8
0
  6
CONTINUOUS
 62
     7
100
AcDbLine
 10
642.9086814818356
 20
-637.2838215166553
 30
0.0
 11
641.9086814818356
 21
-637.2838215166566
 31
0.0
  0
LINE
  5
42A
330
158
100
AcDbEntity
  8
0
  6
CONTINUOUS
 62
     7
100
AcDbLine
 10
642.9086814818274
 20
-591.2838215166566
 30
0.0
 11
644.9086814818274
 21
-591.2838215166566
 31
0.0
  0
LINE
  5
42B
330
158
100
AcDbEntity
  8
0
  6
CONTINUOUS
 62
     7
100
AcDbLine
 10
641.9086814818274
 20
-591.2838215166566
 30
0.0
 11
642.9086814818274
 21
-591.2838215166566
 31
0.0
  0
LINE
  5
42C
330
158
100
AcDbEntity
  8
0
  6
CONTINUOUS
 62
     7
100
AcDbLine
 10
610.9086814818265
 20
-591.2838215166616
 30
0.0
 11
641.9086814818274
 21
-591.2838215166566
 31
0.0
  0
LINE
  5
42D
330
158
100
AcDbEntity
  8
0
  6
CONTINUOUS
 62
     7
100
AcDbLine
 10
610.9086814818265
 20
-591.2838215166616
 30
0.0
 11
608.9086814818265
 21
-591.2838215166626
 31
0.0
  0
LINE
  5
42E
330
158
100
AcDbEntity
  8
0
  6
CONTINUOUS
 62
     7
100
AcDbLine
 10
608.9086814818338
 20
-637.2838215166616
 30
0.0
 11
610.9086814818338
 21
-637.2838215166616
 31
0.0
  0
LINE
  5
42F
330
158
100
AcDbEntity
  8
0
  6
CONTINUOUS
 62
     7
100
AcDbLine
 10
644.9086814818274
 20
-591.2838215166566
 30
0.0
 11
1505.908681481834
 21
-591.2838215165025
 31
0.0
  0
LINE
  5
430
330
158
100
AcDbEntity
  8
0
  6
CONTINUOUS
 62
     7
100
AcDbLine
 10
1505.908681481834
 20
-591.2838215165025
 30
0.0
 11
1541.908681481823
 21
-591.2838215165016
 31
0.0
  0
LINE
  5
431
330
158
100
AcDbEntity
  8
0
  6
CONTINUOUS
 62
     7
100
AcDbLine
 10
1541.908681481831
 20
-637.2838215165016
 30
0.0
 11
644.9086814818356
 21
-637.2838215166566
 31
0.0
  0
LINE
  5
432
330
158
100
AcDbEntity
  8
0
  6
CONTINUOUS
 62
     7
100
AcDbLine
 10
530.9086814818229
 20
-591.2838215166726
 30
0.0
 11
608.9086814818265
 21
-591.2838215166626
 31
0.0
  0
LINE
  5
433
330
158
100
AcDbEntity
  8
0
  6
CONTINUOUS
 62
     7
100
AcDbLine
 10
608.9086814818338
 20
-637.2838215166616
 30
0.0
 11
530.9086814818311
 21
-637.2838215166726
 31
0.0
  0
LINE
  5
434
330
158
100
AcDbEntity
  8
0
  6
CONTINUOUS
 62
     7
100
AcDbLine
 10
528.9086814818302
 20
-635.2838215166726
 30
0.0
 11
528.9086814818247
 21
-593.2838215166726
 31
0.0
  0
LINE
  5
435
330
158
100
AcDbEntity
  8
0
  6
CONTINUOUS
 62
     7
100
AcDbLine
 10
1543.908681481831
 20
-635.2838215165016
 30
0.0
 11
1543.908681481841
 21
-627.2838215164966
 31
0.0
  0
LINE
  5
436
330
158
100
AcDbEntity
  8
0
  6
CONTINUOUS
 62
     7
100
AcDbLine
 10
1543.908681481841
 20
-627.2838215164966
 30
0.0
 11
1543.908681481838
 21
-609.2838215164975
 31
0.0
  0
LINE
  5
437
330
158
100
AcDbEntity
  8
0
  6
CONTINUOUS
 62
     7
100
AcDbLine
 10
1543.908681481838
 20
-609.2838215164975
 30
0.0
 11
1543.908681481825
 21
-593.2838215165007
 31
0.0
  0
ARC
  5
438
330
158
100
AcDbEntity
  8
0
  6
CONTINUOUS
 62
     7
100
AcDbCircle
 10
530.9086814818302
 20
-635.2838215166726
 30
0.0
 40
2.0
100
AcDbArc
 50
180.0
 51
270.000000000026
  0
ARC
  5
439
330
158
100
AcDbEntity
  8
0
  6
CONTINUOUS
 62
     7
100
AcDbCircle
 10
530.9086814818229
 20
-593.2838215166726
 30
0.0
 40
2.0
100
AcDbArc
 50
90.0
 51
180.0
  0
ARC
  5
43A
330
158
100
AcDbEntity
  8
0
  6
CONTINUOUS
 62
     7
100
AcDbCircle
 10
1541.908681481825
 20
-593.2838215165016
 30
0.0
 40
2.0
100
AcDbArc
 50
0.00000000002606
 51
90.00000000005863
  0
ARC
  5
43B
330
158
100
AcDbEntity
  8
0
  6
CONTINUOUS
 62
     7
100
AcDbCircle
 10
1541.908681481831
 20
-635.2838215165016
 30
0.0
 40
2.0
100
AcDbArc
 50
270.0
 51
0.0
  0
ENDBLK
  5
15A
330
158
100
AcDbEntity
  8
0
100
AcDbBlockEnd
  0
BLOCK
  5
15D
330
15B
100
AcDbEntity
  8
0
100
AcDbBlockBegin
  2
PX001681_PANNELLO_1015__59
 70
     0
 10
528.9086814818229
 20
-637.2838215166726
 30
0.0
  3
PX001681_PANNELLO_1015__59
  1

  0
INSERT
  5
15C
330
15B
100
AcDbEntity
  8
0
100
AcDbBlockReference
  2
PX001595_PX001297_1187__58
 10
528.9086814818229
 20
-637.2838215166726
 30
0.0
  0
ENDBLK
  5
15E
330
15B
100
AcDbEntity
  8
0
100
AcDbBlockEnd
  0
BLOCK
  5
160
330
15F
100
AcDbEntity
  8
0
100
AcDbBlockBegin
  2
PX000466_1__60
 70
     0
 10
608.9086814818265
 20
-591.2838215166626
 30
0.0
  3
PX000466_1__60
  1

  0
LINE
  5
43C
330
15F
100
AcDbEntity
  8
0
  6
CONTINUOUS
 62
     7
100
AcDbLine
 10
642.9086814818274
 20
-591.2838215166566
 30
0.0
 11
644.9086814818274
 21
-591.2838215166566
 31
0.0
  0
LINE
  5
43D
330
15F
100
AcDbEntity
  8
0
  6
CONTINUOUS
 62
     7
100
AcDbLine
 10
641.9086814818274
 20
-591.2838215166566
 30
0.0
 11
642.9086814818274
 21
-591.2838215166566
 31
0.0
  0
LINE
  5
43E
330
15F
100
AcDbEntity
  8
0
  6
CONTINUOUS
 62
     1
100
AcDbLine
 10
642.9086814818274
 20
-589.2838215166576
 30
0.0
 11
642.9086814818274
 21
-591.2838215166566
 31
0.0
  0
LINE
  5
43F
330
15F
100
AcDbEntity
  8
0
  6
CONTINUOUS
 62
     1
100
AcDbLine
 10
610.9086814818265
 20
-589.2838215166626
 30
0.0
 11
610.9086814818265
 21
-591.2838215166616
 31
0.0
  0
LINE
  5
440
330
15F
100
AcDbEntity
  8
0
  6
CONTINUOUS
 62
     7
100
AcDbLine
 10
610.9086814818265
 20
-591.2838215166616
 30
0.0
 11
641.9086814818274
 21
-591.2838215166566
 31
0.0
  0
LINE
  5
441
330
15F
100
AcDbEntity
  8
0
  6
CONTINUOUS
 62
     7
100
AcDbLine
 10
610.9086814818265
 20
-589.2838215166626
 30
0.0
 11
642.9086814818274
 21
-589.2838215166576
 31
0.0
  0
LINE
  5
442
330
15F
100
AcDbEntity
  8
0
  6
CONTINUOUS
 62
     7
100
AcDbLine
 10
642.9086814818274
 20
-589.2838215166576
 30
0.0
 11
644.9086814818274
 21
-589.2838215166576
 31
0.0
  0
LINE
  5
443
330
15F
100
AcDbEntity
  8
0
  6
CONTINUOUS
 62
     7
100
AcDbLine
 10
644.9086814818274
 20
-591.2838215166566
 30
0.0
 11
644.9086814818274
 21
-589.2838215166576
 31
0.0
  0
LINE
  5
444
330
15F
100
AcDbEntity
  8
0
  6
CONTINUOUS
 62
     7
100
AcDbLine
 10
610.9086814818265
 20
-589.2838215166626
 30
0.0
 11
608.9086814818265
 21
-589.2838215166635
 31
0.0
  0
LINE
  5
445
330
15F
100
AcDbEntity
  8
0
  6
CONTINUOUS
 62
     7
100
AcDbLine
 10
610.9086814818265
 20
-591.2838215166616
 30
0.0
 11
608.9086814818265
 21
-591.2838215166626
 31
0.0
  0
LINE
  5
446
330
15F
100
AcDbEntity
  8
0
  6
CONTINUOUS
 62
     7
100
AcDbLine
 10
608.9086814818265
 20
-589.2838215166635
 30
0.0
 11
608.9086814818265
 21
-591.2838215166626
 31
0.0
  0
ENDBLK
  5
161
330
15F
100
AcDbEntity
  8
0
100
AcDbBlockEnd
  0
BLOCK
  5
163
330
162
100
AcDbEntity
  8
0
100
AcDbBlockBegin
  2
PX000467_1__61
 70
     0
 10
625.1327501625747
 20
-589.2838215166603
 30
0.0
  3
PX000467_1__61
  1

  0
LINE
  5
447
330
162
100
AcDbEntity
  8
0
  6
CONTINUOUS
 62
     7
100
AcDbLine
 10
641.6493655194345
 20
-581.5819972889594
 30
0.0
 11
625.1327501625747
 21
-589.2838215166603
 31
0.0
  0
LINE
  5
448
330
162
100
AcDbEntity
  8
0
  6
CONTINUOUS
 62
     7
100
AcDbLine
 10
642.4946020429143
 20
-583.3946128630314
 30
0.0
 11
629.8651533288785
 21
-589.2838215166594
 31
0.0
  0
LINE
  5
449
330
162
100
AcDbEntity
  8
0
  6
CONTINUOUS
 62
     7
100
AcDbLine
 10
641.6493655194345
 20
-581.5819972889594
 30
0.0
 11
642.4946020429143
 21
-583.3946128630314
 31
0.0
  0
ENDBLK
  5
164
330
162
100
AcDbEntity
  8
0
100
AcDbBlockEnd
  0
BLOCK
  5
168
330
165
100
AcDbEntity
  8
0
100
AcDbBlockBegin
  2
CM06100A01100_MANIGLIA__62
 70
     0
 10
608.9086814818265
 20
-591.2838215166626
 30
0.0
  3
CM06100A01100_MANIGLIA__62
  1

  0
INSERT
  5
166
330
165
100
AcDbEntity
  8
0
100
AcDbBlockReference
  2
PX000466_1__60
 10
608.9086814818265
 20
-591.2838215166626
 30
0.0
  0
INSERT
  5
167
330
165
100
AcDbEntity
  8
0
100
AcDbBlockReference
  2
PX000467_1__61
 10
625.1327501625747
 20
-589.2838215166603
 30
0.0
  0
ENDBLK
  5
169
330
165
100
AcDbEntity
  8
0
100
AcDbBlockEnd
  0
BLOCK
  5
16E
330
16A
100
AcDbEntity
  8
0
100
AcDbBlockBegin
  2
PANNELLO__63
 70
     0
 10
528.9086814818229
 20
-646.9856457443525
 30
0.0
  3
PANNELLO__63
  1

  0
INSERT
  5
16B
330
16A
100
AcDbEntity
  8
0
100
AcDbBlockReference
  2
CM06100A01100_MANIGLIA__57
 10
608.9086814818338
 20
-646.9856457443525
 30
0.0
  0
INSERT
  5
16C
330
16A
100
AcDbEntity
  8
0
100
AcDbBlockReference
  2
PX001681_PANNELLO_1015__59
 10
528.9086814818229
 20
-637.2838215166726
 30
0.0
  0
INSERT
  5
16D
330
16A
100
AcDbEntity
  8
0
100
AcDbBlockReference
  2
CM06100A01100_MANIGLIA__62
 10
608.9086814818265
 20
-591.2838215166626
 30
0.0
  0
ENDBLK
  5
16F
330
16A
100
AcDbEntity
  8
0
100
AcDbBlockEnd
  0
BLOCK
  5
173
330
170
100
AcDbEntity
  8
0
100
AcDbBlockBegin
  2
PX001593_GRUPPO_ANTA_L__64
 70
     0
 10
528.9086814818229
 20
-646.9856457443525
 30
0.0
  3
PX001593_GRUPPO_ANTA_L__64
  1

  0
INSERT
  5
171
330
170
100
AcDbEntity
  8
0
100
AcDbBlockReference
  2
FRESATE_CERNIERE_TELAI__54
 10
1505.908681481834
 20
-627.2838215164966
 30
0.0
  0
INSERT
  5
172
330
170
100
AcDbEntity
  8
0
100
AcDbBlockReference
  2
PANNELLO__63
 10
528.9086814818229
 20
-646.9856457443525
 30
0.0
  0
ENDBLK
  5
174
330
170
100
AcDbEntity
  8
0
100
AcDbBlockEnd
  0
BLOCK
  5
17A
330
175
100
AcDbEntity
  8
0
100
AcDbBlockBegin
  2
TKKZ0TEC43200_TECNICO___65
 70
     0
 10
528.9086814818229
 20
-646.9856457443525
 30
0.0
  3
TKKZ0TEC43200_TECNICO___65
  1

  0
INSERT
  5
176
330
175
100
AcDbEntity
  8
0
100
AcDbBlockReference
  2
PX001692_TELAIO_BATTEN__37
 10
1508.243779234429
 20
-581.8220470348624
 30
0.0
  0
INSERT
  5
177
330
175
100
AcDbEntity
  8
0
100
AcDbBlockReference
  2
PX004198_STIPITE_MONTA__38
 10
1507.243779208084
 20
-581.8220470348624
 30
0.0
  0
INSERT
  5
178
330
175
100
AcDbEntity
  8
0
100
AcDbBlockReference
  2
00S0060A00100_CERNIERA__51
 10
1543.243779214811
 20
-607.4134580280015
 30
0.0
  0
INSERT
  5
179
330
175
100
AcDbEntity
  8
0
100
AcDbBlockReference
  2
PX001593_GRUPPO_ANTA_L__64
 10
528.9086814818229
 20
-646.9856457443525
 30
0.0
  0
ENDBLK
  5
17B
330
175
100
AcDbEntity
  8
0
100
AcDbBlockEnd
  0
BLOCK
  5
17E
330
17C
100
AcDbEntity
  8
0
100
AcDbBlockBegin
  2
GEN7
 70
     0
 10
2054.243832999999
 20
-562.5877409999975
 30
0.0
  3
GEN7
  1

  0
INSERT
  5
17D
330
17C
100
AcDbEntity
  8
0
100
AcDbBlockReference
  2
TKKZ0TEC43200_TECNICO___65
 10
528.9086814818229
 20
-646.9856457443525
 30
0.0
  0
MTEXT
  5
44A
330
17C
100
AcDbEntity
  8
1
 62
     3
100
AcDbMText
 10
1624.823165967353
 20
-724.0139147418913
 30
0.0
 40
5.0
 41
0.0
 71
     5
 72
     1
  1
APERTURA 180%%d
  7
CONVERTER_11
1001
ACAD
1000
MTEXTBEGIN
1070
    44
1040
0.96038415366146
1000
MTEXTEND
  0
DIMENSION
  5
457
330
17C
100
AcDbEntity
  8
1
100
AcDbDimension
  2
*D162
 10
1491.164398452686
 20
-591.2838215165025
 30
0.0
 11
1487.414398452686
 21
-569.11707588378
 31
0.0
 70
    32
  1
<>
 53
90.0
  3
ME10_DIM_11
100
AcDbAlignedDimension
 13
1507.243779208084
 23
-581.8220470344477
 33
0.0
 14
1505.908681481834
 24
-591.2838215165025
 34
0.0
 50
90.0
100
AcDbRotatedDimension
  0
INSERT
  5
462
330
17C
100
AcDbEntity
  8
1
100
AcDbBlockReference
  2
*D163
 10
0.0
 20
0.0
 30
0.0
  0
ENDBLK
  5
17F
330
17C
100
AcDbEntity
  8
0
100
AcDbBlockEnd
  0
BLOCK
  5
181
330
180
100
AcDbEntity
  8
0
100
AcDbBlockBegin
  2
PX004198_STIPITE_MONTA__66
 70
     0
 10
1507.243779208086
 20
652.4866869651378
 30
0.0
  3
PX004198_STIPITE_MONTA__66
  1

  0
LINE
  5
463
330
180
100
AcDbEntity
  8
0
  6
CONTINUOUS
 62
     7
100
AcDbLine
 10
1543.243779214812
 20
702.4866869654466
 30
0.0
 11
1543.243779234431
 21
688.4866869651378
 31
0.0
  0
LINE
  5
464
330
180
100
AcDbEntity
  8
0
  6
CONTINUOUS
 62
     7
100
AcDbLine
 10
1543.243779234431
 20
688.4866869651378
 30
0.0
 11
1543.243779265263
 21
670.4866869646507
 31
0.0
  0
LINE
  5
465
330
180
100
AcDbEntity
  8
0
  6
CONTINUOUS
 62
     7
100
AcDbLine
 10
1543.243779214812
 20
702.4866869654466
 30
0.0
 11
1552.243779216494
 21
702.4866869654197
 31
0.0
  0
LINE
  5
466
330
180
100
AcDbEntity
  8
0
  6
CONTINUOUS
 62
     7
100
AcDbLine
 10
1543.243779265263
 20
670.4866869646507
 30
0.0
 11
1543.243779214813
 21
654.4866869654466
 31
0.0
  0
LINE
  5
467
330
180
100
AcDbEntity
  8
0
  6
CONTINUOUS
 62
     7
100
AcDbLine
 10
1541.243779214439
 20
652.4866869654529
 30
0.0
 11
1508.243779234431
 21
652.4866869651378
 31
0.0
  0
LINE
  5
468
330
180
100
AcDbEntity
  8
0
  6
CONTINUOUS
 62
     7
100
AcDbLine
 10
1508.243779234431
 20
652.4866869651378
 30
0.0
 11
1507.243779208086
 21
652.4866869655525
 31
0.0
  0
LINE
  5
469
330
180
100
AcDbEntity
  8
0
  6
CONTINUOUS
 62
     7
100
AcDbLine
 10
1554.243779216868
 20
704.4866869654138
 30
0.0
 11
1554.243779216868
 21
742.4866869654138
 31
0.0
  0
LINE
  5
46A
330
180
100
AcDbEntity
  8
0
  6
CONTINUOUS
 62
     7
100
AcDbLine
 10
1507.243779208086
 20
742.4866869655525
 30
0.0
 11
1507.243779208086
 21
652.4866869655525
 31
0.0
  0
LINE
  5
46B
330
180
100
AcDbEntity
  8
0
  6
CONTINUOUS
 62
     7
100
AcDbLine
 10
1507.243779208086
 20
742.4866869655525
 30
0.0
 11
1554.243779216868
 21
742.4866869654138
 31
0.0
  0
ARC
  5
46C
330
180
100
AcDbEntity
  8
0
  6
CONTINUOUS
 62
     7
100
AcDbCircle
 10
1541.243779214626
 20
654.4866869656398
 30
0.0
 40
2.000000000186901
100
AcDbArc
 50
269.9999999946392
 51
359.9999999944633
  0
ARC
  5
46D
330
180
100
AcDbEntity
  8
0
  6
CONTINUOUS
 62
     7
100
AcDbCircle
 10
1552.243779216681
 20
704.4866869656066
 30
0.0
 40
2.000000000186901
100
AcDbArc
 50
269.9999999946392
 51
359.9999999944763
  0
ENDBLK
  5
182
330
180
100
AcDbEntity
  8
0
100
AcDbBlockEnd
  0
BLOCK
  5
184
330
183
100
AcDbEntity
  8
0
100
AcDbBlockBegin
  2
SCASSO_MONTANTE_S0043___67
 70
     0
 10
1508.243779234431
 20
652.4866869651378
 30
0.0
  3
SCASSO_MONTANTE_S0043___67
  1

  0
LINE
  5
46E
330
183
100
AcDbEntity
  8
0
  6
CONTINUOUS
 62
     7
100
AcDbLine
 10
1543.243779234431
 20
688.4866869651378
 30
0.0
 11
1543.243779265263
 21
670.4866869646507
 31
0.0
  0
LINE
  5
46F
330
183
100
AcDbEntity
  8
0
  6
CONTINUOUS
 62
     7
100
AcDbLine
 10
1543.243779265263
 20
670.4866869646507
 30
0.0
 11
1543.243779214813
 21
654.4866869654466
 31
0.0
  0
LINE
  5
470
330
183
100
AcDbEntity
  8
0
  6
CONTINUOUS
 62
     7
100
AcDbLine
 10
1541.243779214439
 20
652.4866869654529
 30
0.0
 11
1508.243779234431
 21
652.4866869651378
 31
0.0
  0
ARC
  5
471
330
183
100
AcDbEntity
  8
0
  6
CONTINUOUS
 62
     7
100
AcDbCircle
 10
1541.243779214626
 20
654.4866869656398
 30
0.0
 40
2.000000000186901
100
AcDbArc
 50
269.9999999946392
 51
359.9999999944633
  0
ENDBLK
  5
185
330
183
100
AcDbEntity
  8
0
100
AcDbBlockEnd
  0
BLOCK
  5
188
330
186
100
AcDbEntity
  8
0
100
AcDbBlockBegin
  2
PX004196_GRUPPO_N_3_SC__68
 70
     0
 10
1508.243779234431
 20
652.4866869651378
 30
0.0
  3
PX004196_GRUPPO_N_3_SC__68
  1

  0
INSERT
  5
187
330
186
100
AcDbEntity
  8
0
100
AcDbBlockReference
  2
SCASSO_MONTANTE_S0043___67
 10
1508.243779234431
 20
652.4866869651378
 30
0.0
  0
ENDBLK
  5
189
330
186
100
AcDbEntity
  8
0
100
AcDbBlockEnd
  0
BLOCK
  5
18C
330
18A
100
AcDbEntity
  8
0
100
AcDbBlockBegin
  2
FRESATE_CERNIERE_TELAI__69
 70
     0
 10
1508.243779234431
 20
652.4866869651378
 30
0.0
  3
FRESATE_CERNIERE_TELAI__69
  1

  0
INSERT
  5
18B
330
18A
100
AcDbEntity
  8
0
100
AcDbBlockReference
  2
PX004196_GRUPPO_N_3_SC__68
 10
1508.243779234431
 20
652.4866869651378
 30
0.0
  0
ENDBLK
  5
18D
330
18A
100
AcDbEntity
  8
0
100
AcDbBlockEnd
  0
BLOCK
  5
18F
330
18E
100
AcDbEntity
  8
0
100
AcDbBlockBegin
  2
PX001697_STIPITE_MONTA__70
 70
     0
 10
2554.243779216868
 20
652.4866869654529
 30
0.0
  3
PX001697_STIPITE_MONTA__70
  1

  0
LINE
  5
472
330
18E
100
AcDbEntity
  8
0
  6
CONTINUOUS
 62
     7
100
AcDbLine
 10
2554.243779216868
 20
742.4866869654138
 30
0.0
 11
2554.243779216868
 21
704.4866869653938
 31
0.0
  0
LINE
  5
473
330
18E
100
AcDbEntity
  8
0
  6
CONTINUOUS
 62
     7
100
AcDbLine
 10
2596.24377920902
 20
652.4866869655375
 30
0.0
 11
2596.24377920902
 21
742.4866869655375
 31
0.0
  0
LINE
  5
474
330
18E
100
AcDbEntity
  8
0
  6
CONTINUOUS
 62
     7
100
AcDbLine
 10
2565.243779214813
 20
702.4866869654265
 30
0.0
 11
2556.243779216495
 21
702.4866869653997
 31
0.0
  0
LINE
  5
475
330
18E
100
AcDbEntity
  8
0
  6
CONTINUOUS
 62
     7
100
AcDbLine
 10
2565.243779214813
 20
702.4866869654265
 30
0.0
 11
2565.243779214813
 21
654.4866869654466
 31
0.0
  0
LINE
  5
476
330
18E
100
AcDbEntity
  8
0
  6
CONTINUOUS
 62
     7
100
AcDbLine
 10
2567.243779214439
 20
652.4866869654529
 30
0.0
 11
2596.24377920902
 21
652.4866869655375
 31
0.0
  0
LINE
  5
477
330
18E
100
AcDbEntity
  8
0
  6
CONTINUOUS
 62
     7
100
AcDbLine
 10
2596.24377920902
 20
742.4866869655375
 30
0.0
 11
2554.243779216868
 21
742.4866869654138
 31
0.0
  0
ARC
  5
478
330
18E
100
AcDbEntity
  8
0
  6
CONTINUOUS
 62
     7
100
AcDbCircle
 10
2556.243779216682
 20
704.4866869652133
 30
0.0
 40
1.999999999814008
100
AcDbArc
 50
179.999999994828
 51
269.9999999946457
  0
ARC
  5
479
330
18E
100
AcDbEntity
  8
0
  6
CONTINUOUS
 62
     7
100
AcDbCircle
 10
2567.243779214626
 20
654.486686965266
 30
0.0
 40
1.999999999813099
100
AcDbArc
 50
179.999999994828
 51
269.9999999946457
  0
ENDBLK
  5
190
330
18E
100
AcDbEntity
  8
0
100
AcDbBlockEnd
  0
BLOCK
  5
193
330
191
100
AcDbEntity
  8
0
100
AcDbBlockBegin
  2
TELAIO__71
 70
     0
 10
2554.243779216868
 20
652.4866869654529
 30
0.0
  3
TELAIO__71
  1

  0
INSERT
  5
192
330
191
100
AcDbEntity
  8
0
100
AcDbBlockReference
  2
PX001697_STIPITE_MONTA__70
 10
2554.243779216868
 20
652.4866869654529
 30
0.0
  0
ENDBLK
  5
194
330
191
100
AcDbEntity
  8
0
100
AcDbBlockEnd
  0
BLOCK
  5
198
330
195
100
AcDbEntity
  8
0
100
AcDbBlockBegin
  2
PX001692_TELAIO_BATTEN__72
 70
     0
 10
1508.243779234431
 20
652.4866869651378
 30
0.0
  3
PX001692_TELAIO_BATTEN__72
  1

  0
INSERT
  5
196
330
195
100
AcDbEntity
  8
0
100
AcDbBlockReference
  2
FRESATE_CERNIERE_TELAI__69
 10
1508.243779234431
 20
652.4866869651378
 30
0.0
  0
INSERT
  5
197
330
195
100
AcDbEntity
  8
0
100
AcDbBlockReference
  2
TELAIO__71
 10
2554.243779216868
 20
652.4866869654529
 30
0.0
  0
ENDBLK
  5
199
330
195
100
AcDbEntity
  8
0
100
AcDbBlockEnd
  0
BLOCK
  5
19B
330
19A
100
AcDbEntity
  8
0
100
AcDbBlockBegin
  2
PX007439_CORPO_REG_Y_C__73
 70
     0
 10
1543.243779214813
 20
658.6207640903767
 30
0.0
  3
PX007439_CORPO_REG_Y_C__73
  1

  0
LINE
  5
47A
330
19A
100
AcDbEntity
  8
0
  6
CONTINUOUS
 62
     7
100
AcDbLine
 10
1543.618779564789
 20
659.7866869597865
 30
0.0
 11
1543.61877956479
 21
660.1904877634297
 31
0.0
  0
LINE
  5
47B
330
19A
100
AcDbEntity
  8
0
  6
CONTINUOUS
 62
     7
100
AcDbLine
 10
1543.61877956479
 20
660.1904877634297
 30
0.0
 11
1543.618779564799
 21
664.7866869597865
 31
0.0
  0
ARC
  5
47C
330
19A
100
AcDbEntity
  8
0
  6
CONTINUOUS
 62
     7
100
AcDbCircle
 10
1541.618779564789
 20
659.7866869597906
 30
0.0
 40
2.000000000000043
100
AcDbArc
 50
324.3408951053329
 51
359.9999999998827
  0
ARC
  5
47D
330
19A
100
AcDbEntity
  8
0
  6
CONTINUOUS
 62
     7
100
AcDbCircle
 10
1541.618779564799
 20
664.7866869597906
 30
0.0
 40
2.0
100
AcDbArc
 50
359.9999999998827
 51
35.65910489514114
  0
ENDBLK
  5
19C
330
19A
100
AcDbEntity
  8
0
100
AcDbBlockEnd
  0
BLOCK
  5
19F
330
19D
100
AcDbEntity
  8
0
100
AcDbBlockBegin
  2
PD00700A24600_CORPO_RE__74
 70
     0
 10
1543.243779214813
 20
658.6207640903767
 30
0.0
  3
PD00700A24600_CORPO_RE__74
  1

  0
INSERT
  5
19E
330
19D
100
AcDbEntity
  8
0
100
AcDbBlockReference
  2
PX007439_CORPO_REG_Y_C__73
 10
1543.243779214813
 20
658.6207640903767
 30
0.0
  0
ENDBLK
  5
1A0
330
19D
100
AcDbEntity
  8
0
100
AcDbBlockEnd
  0
BLOCK
  5
1A2
330
1A1
100
AcDbEntity
  8
0
100
AcDbBlockBegin
  2
PX007446_BIELLA_INTERN__75
 70
     0
 10
1543.243779214813
 20
650.7839287572797
 30
0.0
  3
PX007446_BIELLA_INTERN__75
  1

  0
LINE
  5
47E
330
1A1
100
AcDbEntity
  8
0
  6
CONTINUOUS
 62
     1
100
AcDbLine
 10
1557.141121537337
 20
667.6258664350389
 30
0.0
 11
1543.243779214813
 21
668.5458683710149
 31
0.0
  0
LINE
  5
47F
330
1A1
100
AcDbEntity
  8
0
  6
CONTINUOUS
 62
     7
100
AcDbLine
 10
1548.021177665089
 20
662.0729299384088
 30
0.0
 11
1551.188867820585
 21
659.9834948270509
 31
0.0
  0
LINE
  5
480
330
1A1
100
AcDbEntity
  8
0
  6
CONTINUOUS
 62
     7
100
AcDbLine
 10
1548.021177665089
 20
662.0729299384088
 30
0.0
 11
1547.070850256996
 21
662.6997739005037
 31
0.0
  0
LINE
  5
481
330
1A1
100
AcDbEntity
  8
0
  6
CONTINUOUS
 62
     7
100
AcDbLine
 10
1557.253415487003
 20
669.3221535772777
 30
0.0
 11
1543.243779214813
 21
670.2495893555438
 31
0.0
  0
LINE
  5
482
330
1A1
100
AcDbEntity
  8
0
  6
CONTINUOUS
 62
     7
100
AcDbLine
 10
1566.4812972058
 20
657.4400802500395
 30
0.0
 11
1561.06578499544
 21
666.9357244162215
 31
0.0
  0
LINE
  5
483
330
1A1
100
AcDbEntity
  8
0
  6
CONTINUOUS
 62
     1
100
AcDbLine
 10
1567.202306301434
 20
650.7839287572797
 30
0.0
 11
1564.985225465263
 21
656.6318135566466
 31
0.0
  0
LINE
  5
484
330
1A1
100
AcDbEntity
  8
0
  6
CONTINUOUS
 62
     1
100
AcDbLine
 10
1559.589064063807
 20
666.0935277105718
 30
0.0
 11
1561.06578499544
 21
666.9357244162215
 31
0.0
  0
LINE
  5
485
330
1A1
100
AcDbEntity
  8
0
  6
CONTINUOUS
 62
     1
100
AcDbLine
 10
1557.141121537337
 20
667.6258664350389
 30
0.0
 11
1557.253415487003
 21
669.3221535772777
 31
0.0
  0
LINE
  5
486
330
1A1
100
AcDbEntity
  8
0
  6
CONTINUOUS
 62
     7
100
AcDbLine
 10
1569.020381363207
 20
650.7839287572797
 30
0.0
 11
1566.560971843624
 21
657.2709919758827
 31
0.0
  0
LINE
  5
487
330
1A1
100
AcDbEntity
  8
0
  6
CONTINUOUS
 62
     7
100
AcDbLine
 10
1562.762368987932
 20
654.2231004419659
 30
0.0
 11
1564.222359406406
 21
650.7839287572797
 31
0.0
  0
LINE
  5
488
330
1A1
100
AcDbEntity
  8
0
  6
CONTINUOUS
 62
     1
100
AcDbLine
 10
1564.985225465263
 20
656.6318135566466
 30
0.0
 11
1559.589064063807
 21
666.0935277105718
 31
0.0
  0
LINE
  5
489
330
1A1
100
AcDbEntity
  8
0
  6
CONTINUOUS
 62
     7
100
AcDbLine
 10
1559.300824214845
 20
657.1064289011965
 30
0.0
 11
1561.652740852094
 21
655.5550848748098
 31
0.0
  0
LINE
  5
48A
330
1A1
100
AcDbEntity
  8
0
  6
CONTINUOUS
 62
     7
100
AcDbLine
 10
1543.61877956479
 20
660.1904877634297
 30
0.0
 11
1544.992789033932
 21
662.2735561707027
 31
0.0
  0
LINE
  5
48B
330
1A1
100
AcDbEntity
  8
0
  6
CONTINUOUS
 62
     7
100
AcDbLine
 10
1545.461408963589
 20
662.7267345451796
 30
0.0
 11
1547.389239727945
 21
662.3341647760358
 31
0.0
  0
LINE
  5
48C
330
1A1
100
AcDbEntity
  8
0
  6
CONTINUOUS
 62
     1
100
AcDbLine
 10
1547.389239727945
 20
662.3341647760358
 30
0.0
 11
1547.417172474776
 21
662.4713368482508
 31
0.0
  0
LINE
  5
48D
330
1A1
100
AcDbEntity
  8
0
  6
CONTINUOUS
 62
     7
100
AcDbLine
 10
1553.082294051356
 20
658.7345749350807
 30
0.0
 11
1551.188867820585
 21
659.9834948270509
 31
0.0
  0
ARC
  5
48E
330
1A1
100
AcDbEntity
  8
0
  6
CONTINUOUS
 62
     7
100
AcDbCircle
 10
1556.93965298351
 20
664.5825277386239
 30
0.0
 40
7.005552792174033
100
AcDbArc
 50
236.5908196988259
 51
274.0653032297193
  0
ARC
  5
48F
330
1A1
100
AcDbEntity
  8
0
  6
CONTINUOUS
 62
     7
100
AcDbCircle
 10
1547.030071569131
 20
660.5703625666897
 30
0.0
 40
1.800000000000008
100
AcDbArc
 50
56.5908196988152
 51
78.49006399704597
  0
ARC
  5
490
330
1A1
100
AcDbEntity
  8
0
  6
CONTINUOUS
 62
     7
100
AcDbCircle
 10
1556.93965298203
 20
664.5825277395502
 30
0.0
 40
4.749999999071925
100
AcDbArc
 50
29.69677840773769
 51
86.21255444077428
  0
ARC
  5
491
330
1A1
100
AcDbEntity
  8
0
  6
CONTINUOUS
 62
     1
100
AcDbCircle
 10
1556.9396529818
 20
664.5825277396943
 30
0.0
 40
3.049999998926736
100
AcDbArc
 50
29.69677840292866
 51
86.21255444559476
  0
ARC
  5
492
330
1A1
100
AcDbEntity
  8
0
  6
CONTINUOUS
 62
     7
100
AcDbCircle
 10
1560.000897358832
 20
653.0508059219437
 30
0.0
 40
2.99999999999973
100
AcDbArc
 50
23.00209835148442
 51
56.5908196988453
  0
ARC
  5
493
330
1A1
100
AcDbEntity
  8
0
  6
CONTINUOUS
 62
     7
100
AcDbCircle
 10
1557.648980721583
 20
654.6021499483309
 30
0.0
 40
2.999999999999684
100
AcDbArc
 50
56.59081969884053
 51
94.06530322971078
  0
ARC
  5
494
330
1A1
100
AcDbEntity
  8
0
  6
CONTINUOUS
 62
     7
100
AcDbCircle
 10
1565.438905959975
 20
656.845588457702
 30
0.0
 40
1.200000000220571
100
AcDbArc
 50
20.76298329800524
 51
29.69677841383492
  0
ARC
  5
495
330
1A1
100
AcDbEntity
  8
0
  6
CONTINUOUS
 62
     7
100
AcDbCircle
 10
1546.244928510365
 20
661.4476344240707
 30
0.0
 40
1.500000000000351
100
AcDbArc
 50
121.4897729985785
 51
146.5908196988127
  0
ARC
  5
496
330
1A1
100
AcDbEntity
  8
0
  6
CONTINUOUS
 62
     7
100
AcDbCircle
 10
1546.244928510365
 20
661.4476344240707
 30
0.0
 40
1.499999999999969
100
AcDbArc
 50
56.59081969884893
 51
121.4897729985785
  0
SPLINE
  5
497
330
1A1
100
AcDbEntity
  8
0
  6
CONTINUOUS
 62
     1
100
AcDbSpline
210
0.0
220
0.0
230
1.0
 70
  1064
 71
     3
 72
    22
 73
    18
 74
    16
 42
0.000000001
 43
0.0000000001
 44
0.00000001
 40
0.0
 40
0.0
 40
0.0
 40
0.0
 40
0.1668414799439775
 40
0.3318701431226093
 40
0.4133311712069271
 40
0.4938907866976953
 40
0.5337223582602922
 40
0.5732318301326972
 40
0.6122989905514896
 40
0.6509983914490867
 40
0.8055380633458762
 40
0.9948054456990183
 40
1.201047624787466
 40
1.398796730858108
 40
1.570622801828581
 40
1.635535758341196
 40
1.700448714855389
 40
1.700448714855389
 40
1.700448714855389
 40
1.700448714855389
 10
1564.985225465263
 20
656.6318135566466
 30
0.0
 10
1565.03674500232
 20
656.6527571866185
 30
0.0
 10
1565.139224285162
 20
656.6944168970954
 30
0.0
 10
1565.266923025291
 20
656.74614266481
 30
0.0
 10
1565.367961551786
 20
656.7870791867196
 30
0.0
 10
1565.430316806111
 20
656.8123570180422
 30
0.0
 10
1565.479707850608
 20
656.8323929392925
 30
0.0
 10
1565.516282695807
 20
656.8472291900351
 30
0.0
 10
1565.552507914936
 20
656.8619233667065
 30
0.0
 10
1565.624264596778
 20
656.8910304362711
 30
0.0
 10
1565.742416392799
 20
656.9389569611781
 30
0.0
 10
1565.912320192215
 20
657.0078759551632
 30
0.0
 10
1566.095570886649
 20
657.0822089099341
 30
0.0
 10
1566.27343416108
 20
657.1543565426043
 30
0.0
 10
1566.407642487437
 20
657.2087961772945
 30
0.0
 10
1566.500819269279
 20
657.2465919815579
 30
0.0
 10
1566.540920987323
 20
657.2628586399688
 30
0.0
 10
1566.560971843624
 20
657.2709919758827
 30
0.0
 11
1564.985225465263
 21
656.6318135566466
 31
0.0
 11
1565.139797231677
 21
656.6946120315977
 31
0.0
 11
1565.292740110983
 21
656.7566034450356
 31
0.0
 11
1565.36823904028
 21
656.7871944693975
 31
0.0
 11
1565.44289673497
 21
656.8174612873936
 31
0.0
 11
1565.479807385449
 21
656.8324331935625
 31
0.0
 11
1565.516419339
 21
656.8472845647066
 31
0.0
 11
1565.552621511639
 21
656.861969445346
 31
0.0
 11
1565.588482894379
 21
656.8765160895578
 31
0.0
 11
1565.731689409049
 21
656.9346057129521
 31
0.0
 11
1565.90707687969
 21
657.0057490693891
 31
0.0
 11
1566.098194301404
 21
657.0832730498887
 31
0.0
 11
1566.281441489084
 21
657.1576045853162
 31
0.0
 11
1566.440666705833
 21
657.2221919603708
 31
0.0
 11
1566.500819274725
 21
657.2465919681359
 31
0.0
 11
1566.560971843624
 21
657.2709919758827
 31
0.0
  0
SPLINE
  5
498
330
1A1
100
AcDbEntity
  8
0
  6
CONTINUOUS
 62
     1
100
AcDbSpline
210
0.0
220
0.0
230
1.0
 70
  1064
 71
     3
 72
    22
 73
    18
 74
    16
 42
0.000000001
 43
0.0000000001
 44
0.00000001
 40
0.0
 40
0.0
 40
0.0
 40
0.0
 40
0.1668414800576616
 40
0.3318701431223873
 40
0.4133311717218463
 40
0.4938907866972816
 40
0.533722358259181
 40
0.5732318301318624
 40
0.6122989905504809
 40
0.6509983914478981
 40
0.9019333578692403
 40
1.201047624782936
 40
1.373586278517892
 40
1.493392984180711
 40
1.57062280181855
 40
1.635535758328461
 40
1.700448714839794
 40
1.700448714839794
 40
1.700448714839794
 40
1.700448714839794
 10
1564.985225465263
 20
656.6318135566466
 30
0.0
 10
1565.034175091334
 20
656.6582111407535
 30
0.0
 10
1565.131542488037
 20
656.7107194729306
 30
0.0
 10
1565.252727813668
 20
656.7762682347441
 30
0.0
 10
1565.348620289199
 20
656.8281258840423
 30
0.0
 10
1565.407810588566
 20
656.8601204923261
 30
0.0
 10
1565.454705168884
 20
656.8854544958607
 30
0.0
 10
1565.4894308311
 20
656.9042151467315
 30
0.0
 10
1565.523824350101
 20
656.922796620833
 30
0.0
 10
1565.620222660552
 20
656.9748766724776
 30
0.0
 10
1565.792884957216
 20
657.0681591205782
 30
0.0
 10
1566.004798311219
 20
657.1826472704236
 30
0.0
 10
1566.178255673645
 20
657.2763592288318
 30
0.0
 10
1566.286640985739
 20
657.3349154018449
 30
0.0
 10
1566.363462908168
 20
657.3764191634991
 30
0.0
 10
1566.42418614482
 20
657.4092254507912
 30
0.0
 10
1566.46226018316
 20
657.4297953212397
 30
0.0
 10
1566.4812972058
 20
657.4400802500395
 30
0.0
 11
1564.985225465263
 21
656.6318135566466
 31
0.0
 11
1565.13205772067
 21
656.7110370900102
 31
0.0
 11
1565.277230605993
 21
656.7895182533539
 31
0.0
 11
1565.348885847645
 21
656.828266485885
 31
0.0
 11
1565.419755520928
 21
656.8665723728177
 31
0.0
 11
1565.454799577943
 21
656.8855056282435
 31
0.0
 11
1565.489560524609
 21
656.9042852702678
 31
0.0
 11
1565.523932202803
 21
656.9228548895782
 31
0.0
 11
1565.557980322494
 21
656.9412497033936
 31
0.0
 11
1565.778755413926
 21
657.0605255030188
 31
0.0
 11
1566.041919135463
 21
657.2027021548929
 31
0.0
 11
1566.193720367465
 21
657.2847141844707
 31
0.0
 11
1566.299127504523
 21
657.3416613721008
 31
0.0
 11
1566.367075069961
 21
657.3783706772347
 31
0.0
 11
1566.424186137879
 21
657.4092254636402
 31
0.0
 11
1566.4812972058
 21
657.4400802500395
 31
0.0
  0
ENDBLK
  5
1A3
330
1A1
100
AcDbEntity
  8
0
100
AcDbBlockEnd
  0
BLOCK
  5
1A6
330
1A4
100
AcDbEntity
  8
0
100
AcDbBlockBegin
  2
PD05300A09200_BIELLA_I__76
 70
     0
 10
1543.243779214813
 20
650.7839287572797
 30
0.0
  3
PD05300A09200_BIELLA_I__76
  1

  0
INSERT
  5
1A5
330
1A4
100
AcDbEntity
  8
0
100
AcDbBlockReference
  2
PX007446_BIELLA_INTERN__75
 10
1543.243779214813
 20
650.7839287572797
 30
0.0
  0
ENDBLK
  5
1A7
330
1A4
100
AcDbEntity
  8
0
100
AcDbBlockEnd
  0
BLOCK
  5
1A9
330
1A8
100
AcDbEntity
  8
0
100
AcDbBlockBegin
  2
PX007445_BIELLA_INTERN__77
 70
     0
 10
1543.243779214813
 20
650.7839287572779
 30
0.0
  3
PX007445_BIELLA_INTERN__77
  1

  0
LINE
  5
499
330
1A8
100
AcDbEntity
  8
0
  6
CONTINUOUS
 62
     7
100
AcDbLine
 10
1544.878571895543
 20
675.4084319713429
 30
0.0
 11
1555.252870971273
 21
669.8098183637157
 31
0.0
  0
LINE
  5
49A
330
1A8
100
AcDbEntity
  8
0
  6
CONTINUOUS
 62
     7
100
AcDbLine
 10
1543.243779214813
 20
671.9966152832776
 30
0.0
 11
1545.768032306763
 21
670.0824841869735
 31
0.0
  0
LINE
  5
49B
330
1A8
100
AcDbEntity
  8
0
  6
CONTINUOUS
 62
     1
100
AcDbLine
 10
1551.923092221874
 20
669.6750201620875
 30
0.0
 11
1544.100522760809
 21
673.8965626018835
 31
0.0
  0
LINE
  5
49C
330
1A8
100
AcDbEntity
  8
0
  6
CONTINUOUS
 62
     1
100
AcDbLine
 10
1544.100522760809
 20
673.8965626018835
 30
0.0
 11
1543.243779214813
 21
674.2208390415576
 31
0.0
  0
LINE
  5
49D
330
1A8
100
AcDbEntity
  8
0
  6
CONTINUOUS
 62
     7
100
AcDbLine
 10
1543.243779214813
 20
676.0385368625866
 30
0.0
 11
1544.733458459513
 21
675.4746949941696
 31
0.0
  0
LINE
  5
49E
330
1A8
100
AcDbEntity
  8
0
  6
CONTINUOUS
 62
     7
100
AcDbLine
 10
1563.477767875184
 20
652.5378978781937
 30
0.0
 11
1563.361158209388
 21
650.7839287572797
 31
0.0
  0
LINE
  5
49F
330
1A8
100
AcDbEntity
  8
0
  6
CONTINUOUS
 62
     1
100
AcDbLine
 10
1555.252870971273
 20
669.8098183637157
 30
0.0
 11
1555.067779879227
 21
669.4668423201906
 31
0.0
  0
LINE
  5
4A0
330
1A8
100
AcDbEntity
  8
0
  6
CONTINUOUS
 62
     1
100
AcDbLine
 10
1558.269667360904
 20
655.1995771898719
 30
0.0
 11
1557.741468529426
 21
654.8692113772936
 31
0.0
  0
LINE
  5
4A1
330
1A8
100
AcDbEntity
  8
0
  6
CONTINUOUS
 62
     1
100
AcDbLine
 10
1559.02793977179
 20
652.7100193675137
 30
0.0
 11
1558.975333464288
 21
650.7839287572788
 31
0.0
  0
LINE
  5
4A2
330
1A8
100
AcDbEntity
  8
0
  6
CONTINUOUS
 62
     1
100
AcDbLine
 10
1561.959209220456
 20
655.3234727810809
 30
0.0
 11
1561.65740532598
 21
650.7839287572788
 31
0.0
  0
LINE
  5
4A3
330
1A8
100
AcDbEntity
  8
0
  6
CONTINUOUS
 62
     7
100
AcDbLine
 10
1557.828387101808
 20
652.7427821234446
 30
0.0
 11
1557.774885962254
 21
650.7839287572779
 31
0.0
  0
LINE
  5
4A4
330
1A8
100
AcDbEntity
  8
0
  6
CONTINUOUS
 62
     7
100
AcDbLine
 10
1557.608079501305
 20
655.1396292579288
 30
0.0
 11
1556.047987006243
 21
657.6339522220937
 31
0.0
  0
LINE
  5
4A5
330
1A8
100
AcDbEntity
  8
0
  6
CONTINUOUS
 62
     1
100
AcDbLine
 10
1557.828387101808
 20
652.7427821234446
 30
0.0
 11
1559.02793977179
 21
652.7100193675137
 31
0.0
  0
LINE
  5
4A6
330
1A8
100
AcDbEntity
  8
0
  6
CONTINUOUS
 62
     7
100
AcDbLine
 10
1556.119465098507
 20
652.4393294144988
 30
0.0
 11
1553.472760568311
 21
650.7839287572779
 31
0.0
  0
LINE
  5
4A7
330
1A8
100
AcDbEntity
  8
0
  6
CONTINUOUS
 62
     1
100
AcDbLine
 10
1556.119465098507
 20
652.4393294144988
 30
0.0
 11
1556.074252004404
 21
650.7839287572779
 31
0.0
  0
ARC
  5
4A8
330
1A8
100
AcDbEntity
  8
0
  6
CONTINUOUS
 62
     7
100
AcDbCircle
 10
1544.308669681142
 20
674.3523962399136
 30
0.0
 40
1.200000000014475
100
AcDbArc
 50
61.64595551439691
 51
69.26840375107807
  0
ARC
  5
4A9
330
1A8
100
AcDbEntity
  8
0
  6
CONTINUOUS
 62
     7
100
AcDbCircle
 10
1556.939652981471
 20
664.5825277386571
 30
0.0
 40
4.750000000000066
100
AcDbArc
 50
29.69677841375472
 51
86.21255443475647
  0
ARC
  5
4AA
330
1A8
100
AcDbEntity
  8
0
  6
CONTINUOUS
 62
     1
100
AcDbCircle
 10
1556.939652981241
 20
664.5825277388012
 30
0.0
 40
3.049999999854876
100
AcDbArc
 50
29.69677841229944
 51
86.21255443622276
  0
ARC
  5
4AB
330
1A8
100
AcDbEntity
  8
0
  6
CONTINUOUS
 62
     7
100
AcDbCircle
 10
1557.152545019254
 20
673.3299374684375
 30
0.0
 40
3.999999999999871
100
AcDbArc
 50
241.6459555143918
 51
262.6725517691559
  0
ARC
  5
4AC
330
1A8
100
AcDbEntity
  8
0
  6
CONTINUOUS
 62
     1
100
AcDbCircle
 10
1554.92946815823
 20
652.8219587834706
 30
0.0
 40
4.100000000000151
100
AcDbArc
 50
358.4354992270199
 51
35.44399674461283
  0
ARC
  5
4AD
330
1A8
100
AcDbEntity
  8
0
  6
CONTINUOUS
 62
     7
100
AcDbCircle
 10
1554.929468157298
 20
652.8219587929552
 30
0.0
 40
2.899999998591916
100
AcDbArc
 50
358.435499039612
 51
12.78827557060192
  0
ARC
  5
4AE
330
1A8
100
AcDbEntity
  8
0
  6
CONTINUOUS
 62
     7
100
AcDbCircle
 10
1556.336343488897
 20
654.3442126911245
 30
0.0
 40
1.500000000000194
100
AcDbArc
 50
20.48726154156515
 51
32.02422057437983
  0
ARC
  5
4AF
330
1A8
100
AcDbEntity
  8
0
  6
CONTINUOUS
 62
     7
100
AcDbCircle
 10
1556.336343488928
 20
654.344212691216
 30
0.0
 40
1.499999999938796
100
AcDbArc
 50
302.0242205643128
 51
20.487261538708
  0
SPLINE
  5
4B0
330
1A8
100
AcDbEntity
  8
0
  6
CONTINUOUS
 62
     1
100
AcDbSpline
210
0.0
220
0.0
230
1.0
 70
  1064
 71
     3
 72
    20
 73
    16
 74
    14
 42
0.000000001
 43
0.0000000001
 44
0.00000001
 40
0.0
 40
0.0
 40
0.0
 40
0.0
 40
0.0649986591805185
 40
0.1299973183598761
 40
0.188651500237508
 40
0.307039740598281
 40
0.4981890560807133
 40
0.7102194020341797
 40
1.048609413045323
 40
1.126540236628711
 40
1.205855927971121
 40
1.286508415253965
 40
1.368064602705843
 40
1.533288058556383
 40
1.700326303406701
 40
1.700326303406701
 40
1.700326303406701
 40
1.700326303406701
 10
1544.878571895543
 20
675.4084319713429
 30
0.0
 10
1544.868657690388
 20
675.3891671429396
 30
0.0
 10
1544.848829267054
 20
675.3506374928374
 30
0.0
 10
1544.820054375803
 20
675.2947234325463
 30
0.0
 10
1544.78313599878
 20
675.2229853394304
 30
0.0
 10
1544.726975938566
 20
675.1138576952817
 30
0.0
 10
1544.647421535861
 20
674.9592711681715
 30
0.0
 10
1544.534310235143
 20
674.7394788212337
 30
0.0
 10
1544.438468815508
 20
674.5532427086688
 30
0.0
 10
1544.362868844736
 20
674.4063423775066
 30
0.0
 10
1544.326584815879
 20
674.3358306302312
 30
0.0
 10
1544.289734405535
 20
674.2642512677287
 30
0.0
 10
1544.239757722152
 20
674.1672216176316
 30
0.0
 10
1544.176586857056
 20
674.0445974140566
 30
0.0
 10
1544.125969619819
 20
673.9460868894365
 30
0.0
 10
1544.100522760809
 20
673.8965626018835
 30
0.0
 11
1544.878571895543
 21
675.4084319713429
 31
0.0
 11
1544.848829280068
 21
675.3506374861406
 31
0.0
 11
1544.819086664619
 21
675.2928430009247
 31
0.0
 11
1544.792247206741
 21
675.2406897982183
 31
0.0
 11
1544.738074152268
 21
675.135423205109
 31
0.0
 11
1544.650606492922
 21
674.9654600638755
 31
0.0
 11
1544.553583921735
 21
674.7769302564566
 31
0.0
 11
1544.39874066672
 21
674.4760459499057
 31
0.0
 11
1544.36308056971
 21
674.4067525826497
 31
0.0
 11
1544.326786521697
 21
674.3362279701237
 31
0.0
 11
1544.289869974215
 21
674.2645202841557
 31
0.0
 11
1544.252527467597
 21
674.1920154642389
 31
0.0
 11
1544.176889559617
 21
674.0451219747997
 31
0.0
 11
1544.100522760809
 21
673.8965626018835
 31
0.0
  0
SPLINE
  5
4B1
330
1A8
100
AcDbEntity
  8
0
  6
CONTINUOUS
 62
     1
100
AcDbSpline
210
0.0
220
0.0
230
1.0
 70
  1064
 71
     3
 72
    19
 73
    15
 74
    13
 42
0.000000001
 43
0.0000000001
 44
0.00000001
 40
0.0
 40
0.0
 40
0.0
 40
0.0
 40
0.0649986591751731
 40
0.1299973183497326
 40
0.3156629706256132
 40
0.4981890560606417
 40
0.7700623626384642
 40
1.048609413019451
 40
1.126540236603313
 40
1.205855927944671
 40
1.286508415718604
 40
1.368064602679405
 40
1.53328805843867
 40
1.700326303379231
 40
1.700326303379231
 40
1.700326303379231
 40
1.700326303379231
 10
1544.733458459513
 20
675.4746949941696
 30
0.0
 10
1544.725393346302
 20
675.4545858165116
 30
0.0
 10
1544.709263133312
 20
675.4143674558096
 30
0.0
 10
1544.670095277116
 20
675.3167081714511
 30
0.0
 10
1544.616344493736
 20
675.1826884384392
 30
0.0
 10
1544.536924405003
 20
674.9846661875937
 30
0.0
 10
1544.445979694933
 20
674.7579083567055
 30
0.0
 10
1544.368012549652
 20
674.5635103330609
 30
0.0
 10
1544.313939533917
 20
674.428684926486
 30
0.0
 10
1544.28441806205
 20
674.3550851983708
 30
0.0
 10
1544.254460747625
 20
674.280358247468
 30
0.0
 10
1544.213867713962
 20
674.179043749536
 30
0.0
 10
1544.162574417333
 20
674.0509959023254
 30
0.0
 10
1544.121281820793
 20
673.9482274750866
 30
0.0
 10
1544.100522760809
 20
673.8965626018835
 30
0.0
 11
1544.733458459513
 21
675.4746949941696
 31
0.0
 11
1544.709263119816
 21
675.4143674612234
 31
0.0
 11
1544.685067780147
 21
675.3540399282656
 31
0.0
 11
1544.615954915739
 21
675.1817171311422
 31
0.0
 11
1544.548010735244
 21
675.0123082759987
 31
0.0
 11
1544.446807616977
 21
674.7599731344059
 31
0.0
 11
1544.343120239817
 21
674.5014438573526
 31
0.0
 11
1544.314110854956
 21
674.4291135811573
 31
0.0
 11
1544.284586224824
 21
674.3554978551979
 31
0.0
 11
1544.254575252216
 21
674.280636882006
 31
0.0
 11
1544.224240867846
 21
674.2049319498255
 31
0.0
 11
1544.162772573249
 21
674.0515682021783
 31
0.0
 11
1544.100522760809
 21
673.8965626018835
 31
0.0
  0
SPLINE
  5
4B2
330
1A8
100
AcDbEntity
  8
0
  6
CONTINUOUS
 62
     7
100
AcDbSpline
210
0.0
220
0.0
230
1.0
 70
  1064
 71
     3
 72
    17
 73
    13
 74
    11
 42
0.000000001
 43
0.0000000001
 44
0.00000001
 40
0.0
 40
0.0
 40
0.0
 40
0.0
 40
0.0125570257496257
 40
0.0251140515456904
 40
0.1205586000243489
 40
0.2165939660704425
 40
0.4438808760226995
 40
0.6759358479089677
 40
0.9470504864447986
 40
1.224824439506714
 40
1.514705674280459
 40
1.812562450861803
 40
1.812562450861803
 40
1.812562450861803
 40
1.812562450861803
 10
1557.757532696995
 20
653.4638707426307
 30
0.0
 10
1557.759138820167
 20
653.4677360058013
 30
0.0
 10
1557.762351053254
 20
653.4754665376621
 30
0.0
 10
1557.777689452718
 20
653.512610371349
 30
0.0
 10
1557.803182980726
 20
653.5756665105748
 30
0.0
 10
1557.853813496721
 20
653.705752742848
 30
0.0
 10
1557.917285158732
 20
653.8796887122423
 30
0.0
 10
1557.994254642784
 20
654.110718473529
 30
0.0
 10
1558.069402613219
 20
654.3599949054167
 30
0.0
 10
1558.142146796088
 20
654.6299868317323
 30
0.0
 10
1558.209919202031
 20
654.9104715921417
 30
0.0
 10
1558.249571951555
 20
655.1023407748615
 30
0.0
 10
1558.269667360904
 20
655.1995771898719
 30
0.0
 11
1557.757532696995
 21
653.4638707426307
 31
0.0
 11
1557.762346805461
 21
653.4754682970195
 31
0.0
 11
1557.767140537438
 21
653.4870742886546
 31
0.0
 11
1557.802916881295
 21
653.5755599681049
 31
0.0
 11
1557.83775590777
 21
653.6650531741548
 31
0.0
 11
1557.915737754223
 21
653.8785436219558
 31
0.0
 11
1557.989160205982
 21
654.0986768848716
 31
0.0
 11
1558.067489656942
 21
654.3582296618788
 31
0.0
 11
1558.139951749096
 21
654.6263856125056
 31
0.0
 11
1558.207745358719
 21
654.9082280443832
 31
0.0
 11
1558.269667360904
 21
655.1995771898719
 31
0.0
  0
SPLINE
  5
4B3
330
1A8
100
AcDbEntity
  8
0
  6
CONTINUOUS
 62
     7
100
AcDbSpline
210
0.0
220
0.0
230
1.0
 70
  1064
 71
     3
 72
    11
 73
     7
 74
     5
 42
0.000000001
 43
0.0000000001
 44
0.00000001
 40
0.0
 40
0.0
 40
0.0
 40
0.0
 40
0.1540489989414497
 40
0.293439373377747
 40
0.4538002441127612
 40
0.7380926175878105
 40
0.7380926175878105
 40
0.7380926175878105
 40
0.7380926175878105
 10
1557.757532696995
 20
653.4638707426307
 30
0.0
 10
1557.713997216818
 20
653.4366411595219
 30
0.0
 10
1557.63106890123
 20
653.3847730403115
 30
0.0
 10
1557.50282132041
 20
653.304559655672
 30
0.0
 10
1557.337765919953
 20
653.2013245510144
 30
0.0
 10
1557.212103355073
 20
653.1227279821918
 30
0.0
 10
1557.131760055476
 20
653.0724766787207
 30
0.0
 11
1557.757532696995
 21
653.4638707426307
 31
0.0
 11
1557.626926256602
 21
653.3821819930833
 31
0.0
 11
1557.508747750534
 21
653.3082663845216
 31
0.0
 11
1557.372789954424
 21
653.2232305888838
 31
0.0
 11
1557.131760055476
 21
653.0724766787207
 31
0.0
  0
SPLINE
  5
4B4
330
1A8
100
AcDbEntity
  8
0
  6
CONTINUOUS
 62
     7
100
AcDbSpline
210
0.0
220
0.0
230
1.0
 70
  1064
 71
     3
 72
    26
 73
    22
 74
    20
 42
0.000000001
 43
0.0000000001
 44
0.00000001
 40
0.0
 40
0.0
 40
0.0
 40
0.0
 40
0.0028728853366456
 40
0.0057547465501235
 40
0.0477736269424922
 40
0.0982379012480698
 40
0.1569977334830991
 40
0.2239032876623099
 40
0.2988047277990339
 40
0.3815522179069888
 40
0.4719959220004583
 40
0.5699860040920873
 40
0.6105560884189963
 40
0.6592788099441015
 40
0.7157420275721483
 40
0.7795336002066773
 40
0.8502413867510361
 40
0.9274532461085726
 40
1.010757037184611
 40
1.099740618877346
 40
1.19399185009641
 40
1.19399185009641
 40
1.19399185009641
 40
1.19399185009641
 10
1557.131760055476
 20
653.0724766787207
 30
0.0
 10
1557.13094815482
 20
653.0719688701304
 30
0.0
 10
1557.129321816859
 20
653.0709516663717
 30
0.0
 10
1557.115820603057
 20
653.0625072437289
 30
0.0
 10
1557.088869685221
 20
653.0456505981206
 30
0.0
 10
1557.046127207289
 20
653.0189170022819
 30
0.0
 10
1556.996351555464
 20
652.9877844581194
 30
0.0
 10
1556.939669765251
 20
652.9523324187863
 30
0.0
 10
1556.876208870877
 20
652.912640339472
 30
0.0
 10
1556.806095906991
 20
652.8687876746976
 30
0.0
 10
1556.72945790811
 20
652.8208538791989
 30
0.0
 10
1556.664739581639
 20
652.7803753297621
 30
0.0
 10
1556.611811938727
 20
652.7472713493758
 30
0.0
 10
1556.570620120041
 20
652.7215076258672
 30
0.0
 10
1556.52286572292
 20
652.6916392898084
 30
0.0
 10
1556.468898170502
 20
652.6578848904
 30
0.0
 10
1556.409066885802
 20
652.6204629770419
 30
0.0
 10
1556.343721292374
 20
652.5795920982703
 30
0.0
 10
1556.273210811491
 20
652.5354908062736
 30
0.0
 10
1556.197884873909
 20
652.4883776380713
 30
0.0
 10
1556.146101250719
 20
652.4559891902218
 30
0.0
 10
1556.119465098507
 20
652.4393294144988
 30
0.0
 11
1557.131760055476
 21
653.0724766787207
 31
0.0
 11
1557.129324353651
 21
653.0709532527223
 31
0.0
 11
1557.126881042431
 21
653.0694250661059
 31
0.0
 11
1557.091256426835
 21
653.0471433903878
 31
0.0
 11
1557.048471603517
 21
653.0203833105138
 31
0.0
 11
1556.998653607024
 21
652.9892242811682
 31
0.0
 11
1556.941929471903
 21
652.9537457570341
 31
0.0
 11
1556.878426232699
 21
652.9140271927954
 31
0.0
 11
1556.80827092396
 21
652.8701480431359
 31
0.0
 11
1556.73159058023
 21
652.8221877627392
 31
0.0
 11
1556.648512236059
 21
652.7702258062895
 31
0.0
 11
1556.614115944549
 21
652.7487123948304
 31
0.0
 11
1556.572807651491
 21
652.7228758215774
 31
0.0
 11
1556.524936780001
 21
652.6929346357675
 31
0.0
 11
1556.470852753195
 21
652.659107386638
 31
0.0
 11
1556.41090499419
 21
652.621612623426
 31
0.0
 11
1556.345442926103
 21
652.580668895369
 31
0.0
 11
1556.274815972049
 21
652.5364947517038
 31
0.0
 11
1556.199373555145
 21
652.4893087416682
 31
0.0
 11
1556.119465098507
 21
652.4393294144988
 31
0.0
  0
ENDBLK
  5
1AA
330
1A8
100
AcDbEntity
  8
0
100
AcDbBlockEnd
  0
BLOCK
  5
1AD
330
1AB
100
AcDbEntity
  8
0
100
AcDbBlockBegin
  2
PD05300A09100_BIELLA_I__78
 70
     0
 10
1543.243779214813
 20
650.7839287572779
 30
0.0
  3
PD05300A09100_BIELLA_I__78
  1

  0
INSERT
  5
1AC
330
1AB
100
AcDbEntity
  8
0
100
AcDbBlockReference
  2
PX007445_BIELLA_INTERN__77
 10
1543.243779214813
 20
650.7839287572779
 30
0.0
  0
ENDBLK
  5
1AE
330
1AB
100
AcDbEntity
  8
0
100
AcDbBlockEnd
  0
BLOCK
  5
1B2
330
1AF
100
AcDbEntity
  8
0
100
AcDbBlockBegin
  2
GFS0060A00100_GRUPPO_B__79
 70
     0
 10
1543.243779214813
 20
650.7839287572779
 30
0.0
  3
GFS0060A00100_GRUPPO_B__79
  1

  0
INSERT
  5
1B0
330
1AF
100
AcDbEntity
  8
0
100
AcDbBlockReference
  2
PD05300A09200_BIELLA_I__76
 10
1543.243779214813
 20
650.7839287572797
 30
0.0
  0
INSERT
  5
1B1
330
1AF
100
AcDbEntity
  8
0
100
AcDbBlockReference
  2
PD05300A09100_BIELLA_I__78
 10
1543.243779214813
 20
650.7839287572779
 30
0.0
  0
ENDBLK
  5
1B3
330
1AF
100
AcDbEntity
  8
0
100
AcDbBlockEnd
  0
BLOCK
  5
1B6
330
1B4
100
AcDbEntity
  8
0
100
AcDbBlockBegin
  2
GFS0060A00200_GRUPPO_B__80
 70
     0
 10
1543.243779214813
 20
650.7839287572779
 30
0.0
  3
GFS0060A00200_GRUPPO_B__80
  1

  0
INSERT
  5
1B5
330
1B4
100
AcDbEntity
  8
0
100
AcDbBlockReference
  2
GFS0060A00100_GRUPPO_B__79
 10
1543.243779214813
 20
650.7839287572779
 30
0.0
  0
ENDBLK
  5
1B7
330
1B4
100
AcDbEntity
  8
0
100
AcDbBlockEnd
  0
BLOCK
  5
1BB
330
1B8
100
AcDbEntity
  8
0
100
AcDbBlockBegin
  2
GFS0060A00300_GRUPPO_B__81
 70
     0
 10
1543.243779214813
 20
650.7839287572779
 30
0.0
  3
GFS0060A00300_GRUPPO_B__81
  1

  0
INSERT
  5
1B9
330
1B8
100
AcDbEntity
  8
0
100
AcDbBlockReference
  2
PD00700A24600_CORPO_RE__74
 10
1543.243779214813
 20
658.6207640903767
 30
0.0
  0
INSERT
  5
1BA
330
1B8
100
AcDbEntity
  8
0
100
AcDbBlockReference
  2
GFS0060A00200_GRUPPO_B__80
 10
1543.243779214813
 20
650.7839287572779
 30
0.0
  0
ENDBLK
  5
1BC
330
1B8
100
AcDbEntity
  8
0
100
AcDbBlockEnd
  0
BLOCK
  5
1BF
330
1BD
100
AcDbEntity
  8
0
100
AcDbBlockBegin
  2
GFS0060A00400_GRUPPO_B__82
 70
     0
 10
1543.243779214813
 20
650.7839287572779
 30
0.0
  3
GFS0060A00400_GRUPPO_B__82
  1

  0
INSERT
  5
1BE
330
1BD
100
AcDbEntity
  8
0
100
AcDbBlockReference
  2
GFS0060A00300_GRUPPO_B__81
 10
1543.243779214813
 20
650.7839287572779
 30
0.0
  0
ENDBLK
  5
1C0
330
1BD
100
AcDbEntity
  8
0
100
AcDbBlockEnd
  0
BLOCK
  5
1C3
330
1C1
100
AcDbEntity
  8
0
100
AcDbBlockBegin
  2
GFS0060A00500_GRUPPO_C__83
 70
     0
 10
1543.243779214813
 20
650.7839287572779
 30
0.0
  3
GFS0060A00500_GRUPPO_C__83
  1

  0
INSERT
  5
1C2
330
1C1
100
AcDbEntity
  8
0
100
AcDbBlockReference
  2
GFS0060A00400_GRUPPO_B__82
 10
1543.243779214813
 20
650.7839287572779
 30
0.0
  0
ENDBLK
  5
1C4
330
1C1
100
AcDbEntity
  8
0
100
AcDbBlockEnd
  0
BLOCK
  5
1C7
330
1C5
100
AcDbEntity
  8
0
100
AcDbBlockBegin
  2
GFS0060A00700_GRUPPO_C__84
 70
     0
 10
1543.243779214813
 20
650.7839287572779
 30
0.0
  3
GFS0060A00700_GRUPPO_C__84
  1

  0
INSERT
  5
1C6
330
1C5
100
AcDbEntity
  8
0
100
AcDbBlockReference
  2
GFS0060A00500_GRUPPO_C__83
 10
1543.243779214813
 20
650.7839287572779
 30
0.0
  0
ENDBLK
  5
1C8
330
1C5
100
AcDbEntity
  8
0
100
AcDbBlockEnd
  0
BLOCK
  5
1CB
330
1C9
100
AcDbEntity
  8
0
100
AcDbBlockBegin
  2
00S0060A00100_CERNIERA__85
 70
     0
 10
1543.243779214813
 20
650.7839287572779
 30
0.0
  3
00S0060A00100_CERNIERA__85
  1

  0
INSERT
  5
1CA
330
1C9
100
AcDbEntity
  8
0
100
AcDbBlockReference
  2
GFS0060A00700_GRUPPO_C__84
 10
1543.243779214813
 20
650.7839287572779
 30
0.0
  0
ENDBLK
  5
1CC
330
1C9
100
AcDbEntity
  8
0
100
AcDbBlockEnd
  0
BLOCK
  5
1CE
330
1CD
100
AcDbEntity
  8
0
100
AcDbBlockBegin
  2
SCASSO_PORTA_S0043_3__86
 70
     0
 10
1545.802573541641
 20
612.7839287572697
 30
0.0
  3
SCASSO_PORTA_S0043_3__86
  1

  0
LINE
  5
4B5
330
1CD
100
AcDbEntity
  8
0
  6
CONTINUOUS
 62
     7
100
AcDbLine
 10
1563.802573541636
 20
650.7839287572715
 30
0.0
 11
1547.802573541641
 21
650.7839287572765
 31
0.0
  0
LINE
  5
4B6
330
1CD
100
AcDbEntity
  8
0
  6
CONTINUOUS
 62
     7
100
AcDbLine
 10
1581.802573541636
 20
650.7839287572765
 30
0.0
 11
1563.802573541636
 21
650.7839287572715
 31
0.0
  0
LINE
  5
4B7
330
1CD
100
AcDbEntity
  8
0
  6
CONTINUOUS
 62
     7
100
AcDbLine
 10
1545.802573541642
 20
612.7839287572697
 30
0.0
 11
1545.802573541642
 21
648.7839287572756
 31
0.0
  0
ARC
  5
4B8
330
1CD
100
AcDbEntity
  8
0
  6
CONTINUOUS
 62
     7
100
AcDbCircle
 10
1547.802573541641
 20
648.7839287572765
 30
0.0
 40
2.0
100
AcDbArc
 50
90.0
 51
180.0000000000261
  0
ENDBLK
  5
1CF
330
1CD
100
AcDbEntity
  8
0
100
AcDbBlockEnd
  0
BLOCK
  5
1D2
330
1D0
100
AcDbEntity
  8
0
100
AcDbBlockBegin
  2
PX004194_GRUPPO_N_3_SC__87
 70
     0
 10
1545.802573541641
 20
612.7839287572697
 30
0.0
  3
PX004194_GRUPPO_N_3_SC__87
  1

  0
INSERT
  5
1D1
330
1D0
100
AcDbEntity
  8
0
100
AcDbBlockReference
  2
SCASSO_PORTA_S0043_3__86
 10
1545.802573541641
 20
612.7839287572697
 30
0.0
  0
ENDBLK
  5
1D3
330
1D0
100
AcDbEntity
  8
0
100
AcDbBlockEnd
  0
BLOCK
  5
1D6
330
1D4
100
AcDbEntity
  8
0
100
AcDbBlockBegin
  2
FRESATE_CERNIERE_TELAI__88
 70
     0
 10
1545.802573541641
 20
612.7839287572697
 30
0.0
  3
FRESATE_CERNIERE_TELAI__88
  1

  0
INSERT
  5
1D5
330
1D4
100
AcDbEntity
  8
0
100
AcDbBlockReference
  2
PX004194_GRUPPO_N_3_SC__87
 10
1545.802573541641
 20
612.7839287572697
 30
0.0
  0
ENDBLK
  5
1D7
330
1D4
100
AcDbEntity
  8
0
100
AcDbBlockEnd
  0
BLOCK
  5
1D9
330
1D8
100
AcDbEntity
  8
0
100
AcDbBlockBegin
  2
PX000467_1__89
 70
     0
 10
1593.802573541798
 20
-267.9920025619722
 30
0.0
  3
PX000467_1__89
  1

  0
LINE
  5
4B9
330
1D8
100
AcDbEntity
  8
0
  6
CONTINUOUS
 62
     7
100
AcDbLine
 10
1593.802573541799
 20
-267.9920025619722
 30
0.0
 11
1601.504397769495
 21
-251.4753872051083
 31
0.0
  0
LINE
  5
4BA
330
1D8
100
AcDbEntity
  8
0
  6
CONTINUOUS
 62
     7
100
AcDbLine
 10
1601.504397769495
 20
-251.4753872051083
 30
0.0
 11
1599.691782195423
 21
-250.6301506816285
 31
0.0
  0
LINE
  5
4BB
330
1D8
100
AcDbEntity
  8
0
  6
CONTINUOUS
 62
     7
100
AcDbLine
 10
1593.802573541798
 20
-263.2595993956684
 30
0.0
 11
1599.691782195423
 21
-250.6301506816285
 31
0.0
  0
ENDBLK
  5
1DA
330
1D8
100
AcDbEntity
  8
0
100
AcDbBlockEnd
  0
BLOCK
  5
1DC
330
1DB
100
AcDbEntity
  8
0
100
AcDbBlockBegin
  2
PX000466_1__90
 70
     0
 10
1591.802573541797
 20
-284.2160712427194
 30
0.0
  3
PX000466_1__90
  1

  0
LINE
  5
4BC
330
1DB
100
AcDbEntity
  8
0
  6
CONTINUOUS
 62
     7
100
AcDbLine
 10
1591.802573541803
 20
-284.2160712427194
 30
0.0
 11
1591.802573541802
 21
-282.2160712427194
 31
0.0
  0
LINE
  5
4BD
330
1DB
100
AcDbEntity
  8
0
  6
CONTINUOUS
 62
     7
100
AcDbLine
 10
1591.802573541797
 20
-251.2160712427194
 30
0.0
 11
1591.802573541802
 21
-282.2160712427194
 31
0.0
  0
LINE
  5
4BE
330
1DB
100
AcDbEntity
  8
0
  6
CONTINUOUS
 62
     7
100
AcDbLine
 10
1591.802573541797
 20
-250.2160712427194
 30
0.0
 11
1591.802573541797
 21
-251.2160712427194
 31
0.0
  0
LINE
  5
4BF
330
1DB
100
AcDbEntity
  8
0
  6
CONTINUOUS
 62
     7
100
AcDbLine
 10
1591.802573541798
 20
-248.2160712427194
 30
0.0
 11
1591.802573541797
 21
-250.2160712427194
 31
0.0
  0
LINE
  5
4C0
330
1DB
100
AcDbEntity
  8
0
  6
CONTINUOUS
 62
     1
100
AcDbLine
 10
1593.802573541796
 20
-250.2160712427194
 30
0.0
 11
1591.802573541797
 21
-250.2160712427194
 31
0.0
  0
LINE
  5
4C1
330
1DB
100
AcDbEntity
  8
0
  6
CONTINUOUS
 62
     7
100
AcDbLine
 10
1593.802573541798
 20
-248.2160712427194
 30
0.0
 11
1591.802573541798
 21
-248.2160712427194
 31
0.0
  0
LINE
  5
4C2
330
1DB
100
AcDbEntity
  8
0
  6
CONTINUOUS
 62
     7
100
AcDbLine
 10
1593.802573541798
 20
-248.2160712427194
 30
0.0
 11
1593.802573541796
 21
-250.2160712427194
 31
0.0
  0
LINE
  5
4C3
330
1DB
100
AcDbEntity
  8
0
  6
CONTINUOUS
 62
     1
100
AcDbLine
 10
1593.802573541801
 20
-282.2160712427194
 30
0.0
 11
1591.802573541802
 21
-282.2160712427194
 31
0.0
  0
LINE
  5
4C4
330
1DB
100
AcDbEntity
  8
0
  6
CONTINUOUS
 62
     7
100
AcDbLine
 10
1593.802573541796
 20
-250.2160712427194
 30
0.0
 11
1593.802573541801
 21
-282.2160712427194
 31
0.0
  0
LINE
  5
4C5
330
1DB
100
AcDbEntity
  8
0
  6
CONTINUOUS
 62
     7
100
AcDbLine
 10
1593.802573541802
 20
-284.2160712427194
 30
0.0
 11
1591.802573541803
 21
-284.2160712427194
 31
0.0
  0
LINE
  5
4C6
330
1DB
100
AcDbEntity
  8
0
  6
CONTINUOUS
 62
     7
100
AcDbLine
 10
1593.802573541802
 20
-284.2160712427194
 30
0.0
 11
1593.802573541801
 21
-282.2160712427194
 31
0.0
  0
ENDBLK
  5
1DD
330
1DB
100
AcDbEntity
  8
0
100
AcDbBlockEnd
  0
BLOCK
  5
1E1
330
1DE
100
AcDbEntity
  8
0
100
AcDbBlockBegin
  2
CM06100A01100_MANIGLIA__91
 70
     0
 10
1591.802573541797
 20
-284.2160712427194
 30
0.0
  3
CM06100A01100_MANIGLIA__91
  1

  0
INSERT
  5
1DF
330
1DE
100
AcDbEntity
  8
0
100
AcDbBlockReference
  2
PX000467_1__89
 10
1593.802573541798
 20
-267.9920025619722
 30
0.0
  0
INSERT
  5
1E0
330
1DE
100
AcDbEntity
  8
0
100
AcDbBlockReference
  2
PX000466_1__90
 10
1591.802573541797
 20
-284.2160712427194
 30
0.0
  0
ENDBLK
  5
1E2
330
1DE
100
AcDbEntity
  8
0
100
AcDbBlockEnd
  0
BLOCK
  5
1E4
330
1E3
100
AcDbEntity
  8
0
100
AcDbBlockBegin
  2
PX001595_PX001297_1187__92
 70
     0
 10
1545.802573541641
 20
-364.2160712427244
 30
0.0
  3
PX001595_PX001297_1187__92
  1

  0
LINE
  5
4C7
330
1E3
100
AcDbEntity
  8
0
  6
CONTINUOUS
 62
     7
100
AcDbLine
 10
1591.802573541803
 20
-284.2160712427194
 30
0.0
 11
1591.802573541802
 21
-282.2160712427194
 31
0.0
  0
LINE
  5
4C8
330
1E3
100
AcDbEntity
  8
0
  6
CONTINUOUS
 62
     7
100
AcDbLine
 10
1591.802573541797
 20
-251.2160712427194
 30
0.0
 11
1591.802573541802
 21
-282.2160712427194
 31
0.0
  0
LINE
  5
4C9
330
1E3
100
AcDbEntity
  8
0
  6
CONTINUOUS
 62
     7
100
AcDbLine
 10
1591.802573541797
 20
-250.2160712427194
 30
0.0
 11
1591.802573541797
 21
-251.2160712427194
 31
0.0
  0
LINE
  5
4CA
330
1E3
100
AcDbEntity
  8
0
  6
CONTINUOUS
 62
     7
100
AcDbLine
 10
1591.802573541798
 20
-248.2160712427194
 30
0.0
 11
1591.802573541797
 21
-250.2160712427194
 31
0.0
  0
LINE
  5
4CB
330
1E3
100
AcDbEntity
  8
0
  6
CONTINUOUS
 62
     7
100
AcDbLine
 10
1545.802573541803
 20
-282.2160712427271
 30
0.0
 11
1545.802573541798
 21
-251.2160712427271
 31
0.0
  0
LINE
  5
4CC
330
1E3
100
AcDbEntity
  8
0
  6
CONTINUOUS
 62
     7
100
AcDbLine
 10
1545.802573541798
 20
-251.2160712427271
 30
0.0
 11
1545.802573541797
 21
-250.2160712427271
 31
0.0
  0
LINE
  5
4CD
330
1E3
100
AcDbEntity
  8
0
  6
CONTINUOUS
 62
     7
100
AcDbLine
 10
1545.802573541797
 20
-250.2160712427271
 30
0.0
 11
1545.802573541797
 21
-248.2160712427271
 31
0.0
  0
LINE
  5
4CE
330
1E3
100
AcDbEntity
  8
0
  6
CONTINUOUS
 62
     7
100
AcDbLine
 10
1545.802573541803
 20
-282.2160712427271
 30
0.0
 11
1545.802573541803
 21
-284.2160712427271
 31
0.0
  0
LINE
  5
4CF
330
1E3
100
AcDbEntity
  8
0
  6
CONTINUOUS
 62
     7
100
AcDbLine
 10
1591.802573541803
 20
-284.2160712427194
 30
0.0
 11
1591.802573541813
 21
-362.2160712427162
 31
0.0
  0
LINE
  5
4D0
330
1E3
100
AcDbEntity
  8
0
  6
CONTINUOUS
 62
     7
100
AcDbLine
 10
1589.802573541813
 20
-364.2160712427162
 30
0.0
 11
1547.802573541813
 21
-364.2160712427244
 31
0.0
  0
LINE
  5
4D1
330
1E3
100
AcDbEntity
  8
0
  6
CONTINUOUS
 62
     7
100
AcDbLine
 10
1563.802573541636
 20
650.7839287572715
 30
0.0
 11
1547.802573541641
 21
650.7839287572765
 31
0.0
  0
LINE
  5
4D2
330
1E3
100
AcDbEntity
  8
0
  6
CONTINUOUS
 62
     7
100
AcDbLine
 10
1581.802573541636
 20
650.7839287572765
 30
0.0
 11
1563.802573541636
 21
650.7839287572715
 31
0.0
  0
LINE
  5
4D3
330
1E3
100
AcDbEntity
  8
0
  6
CONTINUOUS
 62
     7
100
AcDbLine
 10
1589.802573541641
 20
650.7839287572838
 30
0.0
 11
1581.802573541636
 21
650.7839287572765
 31
0.0
  0
LINE
  5
4D4
330
1E3
100
AcDbEntity
  8
0
  6
CONTINUOUS
 62
     7
100
AcDbLine
 10
1591.802573541642
 20
648.7839287572838
 30
0.0
 11
1591.802573541798
 21
-248.2160712427194
 31
0.0
  0
LINE
  5
4D5
330
1E3
100
AcDbEntity
  8
0
  6
CONTINUOUS
 62
     7
100
AcDbLine
 10
1545.802573541797
 20
-248.2160712427271
 30
0.0
 11
1545.802573541642
 21
612.7839287572697
 31
0.0
  0
LINE
  5
4D6
330
1E3
100
AcDbEntity
  8
0
  6
CONTINUOUS
 62
     7
100
AcDbLine
 10
1545.802573541642
 20
612.7839287572697
 30
0.0
 11
1545.802573541642
 21
648.7839287572756
 31
0.0
  0
LINE
  5
4D7
330
1E3
100
AcDbEntity
  8
0
  6
CONTINUOUS
 62
     7
100
AcDbLine
 10
1545.802573541813
 20
-362.2160712427244
 30
0.0
 11
1545.802573541803
 21
-284.2160712427271
 31
0.0
  0
ARC
  5
4D8
330
1E3
100
AcDbEntity
  8
0
  6
CONTINUOUS
 62
     7
100
AcDbCircle
 10
1589.802573541813
 20
-362.2160712427162
 30
0.0
 40
2.0
100
AcDbArc
 50
270.0
 51
0.0
  0
ARC
  5
4D9
330
1E3
100
AcDbEntity
  8
0
  6
CONTINUOUS
 62
     7
100
AcDbCircle
 10
1589.802573541642
 20
648.7839287572838
 30
0.0
 40
2.0
100
AcDbArc
 50
0.0
 51
90.00000000002606
  0
ARC
  5
4DA
330
1E3
100
AcDbEntity
  8
0
  6
CONTINUOUS
 62
     7
100
AcDbCircle
 10
1547.802573541641
 20
648.7839287572765
 30
0.0
 40
2.0
100
AcDbArc
 50
90.0
 51
180.0000000000261
  0
ARC
  5
4DB
330
1E3
100
AcDbEntity
  8
0
  6
CONTINUOUS
 62
     7
100
AcDbCircle
 10
1547.802573541813
 20
-362.2160712427244
 30
0.0
 40
2.0
100
AcDbArc
 50
180.0
 51
270.0
  0
ENDBLK
  5
1E5
330
1E3
100
AcDbEntity
  8
0
100
AcDbBlockEnd
  0
BLOCK
  5
1E8
330
1E6
100
AcDbEntity
  8
0
100
AcDbBlockBegin
  2
PX001681_PANNELLO_1015__93
 70
     0
 10
1545.802573541641
 20
-364.2160712427244
 30
0.0
  3
PX001681_PANNELLO_1015__93
  1

  0
INSERT
  5
1E7
330
1E6
100
AcDbEntity
  8
0
100
AcDbBlockReference
  2
PX001595_PX001297_1187__92
 10
1545.802573541641
 20
-364.2160712427244
 30
0.0
  0
ENDBLK
  5
1E9
330
1E6
100
AcDbEntity
  8
0
100
AcDbBlockEnd
  0
BLOCK
  5
1EB
330
1EA
100
AcDbEntity
  8
0
100
AcDbBlockBegin
  2
PX000466_1__94
 70
     0
 10
1543.802573541798
 20
-284.2160712427285
 30
0.0
  3
PX000466_1__94
  1

  0
LINE
  5
4DC
330
1EA
100
AcDbEntity
  8
0
  6
CONTINUOUS
 62
     1
100
AcDbLine
 10
1543.802573541798
 20
-250.2160712427271
 30
0.0
 11
1545.802573541797
 21
-250.2160712427271
 31
0.0
  0
LINE
  5
4DD
330
1EA
100
AcDbEntity
  8
0
  6
CONTINUOUS
 62
     1
100
AcDbLine
 10
1543.802573541803
 20
-282.2160712427285
 30
0.0
 11
1545.802573541803
 21
-282.2160712427271
 31
0.0
  0
LINE
  5
4DE
330
1EA
100
AcDbEntity
  8
0
  6
CONTINUOUS
 62
     7
100
AcDbLine
 10
1545.802573541803
 20
-282.2160712427271
 30
0.0
 11
1545.802573541798
 21
-251.2160712427271
 31
0.0
  0
LINE
  5
4DF
330
1EA
100
AcDbEntity
  8
0
  6
CONTINUOUS
 62
     7
100
AcDbLine
 10
1545.802573541798
 20
-251.2160712427271
 30
0.0
 11
1545.802573541797
 21
-250.2160712427271
 31
0.0
  0
LINE
  5
4E0
330
1EA
100
AcDbEntity
  8
0
  6
CONTINUOUS
 62
     7
100
AcDbLine
 10
1543.802573541803
 20
-282.2160712427285
 30
0.0
 11
1543.802573541798
 21
-250.2160712427271
 31
0.0
  0
LINE
  5
4E1
330
1EA
100
AcDbEntity
  8
0
  6
CONTINUOUS
 62
     7
100
AcDbLine
 10
1545.802573541797
 20
-250.2160712427271
 30
0.0
 11
1545.802573541797
 21
-248.2160712427271
 31
0.0
  0
LINE
  5
4E2
330
1EA
100
AcDbEntity
  8
0
  6
CONTINUOUS
 62
     7
100
AcDbLine
 10
1545.802573541797
 20
-248.2160712427271
 30
0.0
 11
1543.802573541798
 21
-248.2160712427285
 31
0.0
  0
LINE
  5
4E3
330
1EA
100
AcDbEntity
  8
0
  6
CONTINUOUS
 62
     7
100
AcDbLine
 10
1543.802573541804
 20
-284.2160712427285
 30
0.0
 11
1545.802573541803
 21
-284.2160712427271
 31
0.0
  0
LINE
  5
4E4
330
1EA
100
AcDbEntity
  8
0
  6
CONTINUOUS
 62
     7
100
AcDbLine
 10
1545.802573541803
 20
-282.2160712427271
 30
0.0
 11
1545.802573541803
 21
-284.2160712427271
 31
0.0
  0
LINE
  5
4E5
330
1EA
100
AcDbEntity
  8
0
  6
CONTINUOUS
 62
     7
100
AcDbLine
 10
1543.802573541798
 20
-250.2160712427271
 30
0.0
 11
1543.802573541798
 21
-248.2160712427285
 31
0.0
  0
LINE
  5
4E6
330
1EA
100
AcDbEntity
  8
0
  6
CONTINUOUS
 62
     7
100
AcDbLine
 10
1543.802573541803
 20
-282.2160712427285
 30
0.0
 11
1543.802573541804
 21
-284.2160712427285
 31
0.0
  0
ENDBLK
  5
1EC
330
1EA
100
AcDbEntity
  8
0
100
AcDbBlockEnd
  0
BLOCK
  5
1EE
330
1ED
100
AcDbEntity
  8
0
100
AcDbBlockBegin
  2
PX000467_1__95
 70
     0
 10
1536.1007493141
 20
-267.9920025619804
 30
0.0
  3
PX000467_1__95
  1

  0
LINE
  5
4E7
330
1ED
100
AcDbEntity
  8
0
  6
CONTINUOUS
 62
     7
100
AcDbLine
 10
1536.1007493141
 20
-251.4753872051192
 30
0.0
 11
1543.802573541801
 21
-267.9920025619804
 31
0.0
  0
LINE
  5
4E8
330
1ED
100
AcDbEntity
  8
0
  6
CONTINUOUS
 62
     7
100
AcDbLine
 10
1536.1007493141
 20
-251.4753872051192
 30
0.0
 11
1537.913364888172
 21
-250.6301506816394
 31
0.0
  0
LINE
  5
4E9
330
1ED
100
AcDbEntity
  8
0
  6
CONTINUOUS
 62
     7
100
AcDbLine
 10
1537.913364888172
 20
-250.6301506816394
 30
0.0
 11
1543.8025735418
 21
-263.2595993956752
 31
0.0
  0
ENDBLK
  5
1EF
330
1ED
100
AcDbEntity
  8
0
100
AcDbBlockEnd
  0
BLOCK
  5
1F3
330
1F0
100
AcDbEntity
  8
0
100
AcDbBlockBegin
  2
CM06100A01100_MANIGLIA__96
 70
     0
 10
1536.1007493141
 20
-284.2160712427285
 30
0.0
  3
CM06100A01100_MANIGLIA__96
  1

  0
INSERT
  5
1F1
330
1F0
100
AcDbEntity
  8
0
100
AcDbBlockReference
  2
PX000466_1__94
 10
1543.802573541798
 20
-284.2160712427285
 30
0.0
  0
INSERT
  5
1F2
330
1F0
100
AcDbEntity
  8
0
100
AcDbBlockReference
  2
PX000467_1__95
 10
1536.1007493141
 20
-267.9920025619804
 30
0.0
  0
ENDBLK
  5
1F4
330
1F0
100
AcDbEntity
  8
0
100
AcDbBlockEnd
  0
BLOCK
  5
1F9
330
1F5
100
AcDbEntity
  8
0
100
AcDbBlockBegin
  2
PANNELLO__97
 70
     0
 10
1536.1007493141
 20
-364.2160712427244
 30
0.0
  3
PANNELLO__97
  1

  0
INSERT
  5
1F6
330
1F5
100
AcDbEntity
  8
0
100
AcDbBlockReference
  2
CM06100A01100_MANIGLIA__91
 10
1591.802573541797
 20
-284.2160712427194
 30
0.0
  0
INSERT
  5
1F7
330
1F5
100
AcDbEntity
  8
0
100
AcDbBlockReference
  2
PX001681_PANNELLO_1015__93
 10
1545.802573541641
 20
-364.2160712427244
 30
0.0
  0
INSERT
  5
1F8
330
1F5
100
AcDbEntity
  8
0
100
AcDbBlockReference
  2
CM06100A01100_MANIGLIA__96
 10
1536.1007493141
 20
-284.2160712427285
 30
0.0
  0
ENDBLK
  5
1FA
330
1F5
100
AcDbEntity
  8
0
100
AcDbBlockEnd
  0
BLOCK
  5
1FE
330
1FB
100
AcDbEntity
  8
0
100
AcDbBlockBegin
  2
PX001593_GRUPPO_ANTA_L__98
 70
     0
 10
1536.1007493141
 20
-364.2160712427244
 30
0.0
  3
PX001593_GRUPPO_ANTA_L__98
  1

  0
INSERT
  5
1FC
330
1FB
100
AcDbEntity
  8
0
100
AcDbBlockReference
  2
FRESATE_CERNIERE_TELAI__88
 10
1545.802573541641
 20
612.7839287572697
 30
0.0
  0
INSERT
  5
1FD
330
1FB
100
AcDbEntity
  8
0
100
AcDbBlockReference
  2
PANNELLO__97
 10
1536.1007493141
 20
-364.2160712427244
 30
0.0
  0
ENDBLK
  5
1FF
330
1FB
100
AcDbEntity
  8
0
100
AcDbBlockEnd
  0
BLOCK
  5
205
330
200
100
AcDbEntity
  8
0
100
AcDbBlockBegin
  2
TKKZ0TEC43200_TECNICO___99
 70
     0
 10
1507.243779208086
 20
-364.2160712427244
 30
0.0
  3
TKKZ0TEC43200_TECNICO___99
  1

  0
INSERT
  5
201
330
200
100
AcDbEntity
  8
0
100
AcDbBlockReference
  2
PX004198_STIPITE_MONTA__66
 10
1507.243779208086
 20
652.4866869651378
 30
0.0
  0
INSERT
  5
202
330
200
100
AcDbEntity
  8
0
100
AcDbBlockReference
  2
PX001692_TELAIO_BATTEN__72
 10
1508.243779234431
 20
652.4866869651378
 30
0.0
  0
INSERT
  5
203
330
200
100
AcDbEntity
  8
0
100
AcDbBlockReference
  2
00S0060A00100_CERNIERA__85
 10
1543.243779214813
 20
650.7839287572779
 30
0.0
  0
INSERT
  5
204
330
200
100
AcDbEntity
  8
0
100
AcDbBlockReference
  2
PX001593_GRUPPO_ANTA_L__98
 10
1536.1007493141
 20
-364.2160712427244
 30
0.0
  0
ENDBLK
  5
206
330
200
100
AcDbEntity
  8
0
100
AcDbBlockEnd
  0
BLOCK
  5
209
330
207
100
AcDbEntity
  8
0
100
AcDbBlockBegin
  2
GEN8
 70
     0
 10
2054.243833
 20
671.7209930000026
 30
0.0
  3
GEN8
  1

  0
INSERT
  5
208
330
207
100
AcDbEntity
  8
0
100
AcDbBlockReference
  2
TKKZ0TEC43200_TECNICO___99
 10
1507.243779208086
 20
-364.2160712427244
 30
0.0
  0
MTEXT
  5
4EA
330
207
100
AcDbEntity
  8
1
 62
     3
100
AcDbMText
 10
2069.393547247745
 20
634.0720247244368
 30
0.0
 40
5.0
 41
0.0
 71
     5
 72
     1
  1
APERTURA 90%%d
  7
CONVERTER_11
1001
ACAD
1000
MTEXTBEGIN
1070
    44
1040
0.96038415366146
1000
MTEXTEND
  0
DIMENSION
  5
4F7
330
207
100
AcDbEntity
  8
1
100
AcDbDimension
  2
*D164
 10
1543.243779214813
 20
635.6340111642553
 30
0.0
 11
1532.076747515738
 21
639.3840111642553
 31
0.0
 70
    32
  1
<>
 53
0.00013888888889
  3
ME10_DIM_12
100
AcDbAlignedDimension
 13
1545.802573541642
 23
648.7839287572756
 33
0.0
 14
1543.243779214813
 24
654.4866869654466
 34
0.0
100
AcDbRotatedDimension
  0
DIMENSION
  5
500
330
207
100
AcDbEntity
  8
1
100
AcDbDimension
  2
*D165
 10
2287.62935249749
 20
-43.34009199104992
 30
0.0
 11
2322.555748786334
 21
-0.95291581790514
 31
0.0
 70
    37
  1
<>
  3
ME10_DIM_13
100
AcDb3PointAngularDimension
 13
1591.802573541803
 23
-284.2160712427194
 33
0.0
 14
2567.243779214439
 24
652.4866869654529
 34
0.0
 15
1591.802573541803
 25
652.4866869626079
 35
0.0
  0
ENDBLK
  5
20A
330
207
100
AcDbEntity
  8
0
100
AcDbBlockEnd
  0
BLOCK
  5
20C
330
20B
100
AcDbEntity
  8
0
100
AcDbBlockBegin
  2
PX007439_CORPO_REG_Y_C_100
 70
     0
 10
53.48784621482128
 20
659.3376710903794
 30
0.0
  3
PX007439_CORPO_REG_Y_C_100
  1

  0
LINE
  5
501
330
20B
100
AcDbEntity
  8
0
  6
CONTINUOUS
 62
     7
100
AcDbLine
 10
53.86284656479711
 20
660.5035939597892
 30
0.0
 11
53.86284656480711
 21
665.5035939597892
 31
0.0
  0
ARC
  5
502
330
20B
100
AcDbEntity
  8
0
  6
CONTINUOUS
 62
     7
100
AcDbCircle
 10
51.86284656480621
 20
665.5035939597933
 30
0.0
 40
2.000000000000895
100
AcDbArc
 50
359.9999999998827
 51
35.65910489514333
  0
ARC
  5
503
330
20B
100
AcDbEntity
  8
0
  6
CONTINUOUS
 62
     7
100
AcDbCircle
 10
51.8628465647962
 20
660.5035939597933
 30
0.0
 40
2.000000000000973
100
AcDbArc
 50
324.340895105352
 51
359.9999999998827
  0
ENDBLK
  5
20D
330
20B
100
AcDbEntity
  8
0
100
AcDbBlockEnd
  0
BLOCK
  5
210
330
20E
100
AcDbEntity
  8
0
100
AcDbBlockBegin
  2
PD00700A24600_CORPO_RE_101
 70
     0
 10
53.48784621482128
 20
659.3376710903794
 30
0.0
  3
PD00700A24600_CORPO_RE_101
  1

  0
INSERT
  5
20F
330
20E
100
AcDbEntity
  8
0
100
AcDbBlockReference
  2
PX007439_CORPO_REG_Y_C_100
 10
53.48784621482128
 20
659.3376710903794
 30
0.0
  0
ENDBLK
  5
211
330
20E
100
AcDbEntity
  8
0
100
AcDbBlockEnd
  0
BLOCK
  5
213
330
212
100
AcDbEntity
  8
0
100
AcDbBlockBegin
  2
PX007445_BIELLA_INTERN_102
 70
     0
 10
53.48784621482128
 20
663.5901670982926
 30
0.0
  3
PX007445_BIELLA_INTERN_102
  1

  0
LINE
  5
504
330
212
100
AcDbEntity
  8
0
  6
CONTINUOUS
 62
     1
100
AcDbLine
 10
69.10451561309128
 20
668.4816026556146
 30
0.0
 11
69.85380067258939
 21
666.9708479253936
 31
0.0
  0
LINE
  5
505
330
212
100
AcDbEntity
  8
0
  6
CONTINUOUS
 62
     7
100
AcDbLine
 10
71.04334055095524
 20
668.3984860896076
 30
0.0
 11
71.12227875774624
 21
668.2393260105514
 31
0.0
  0
LINE
  5
506
330
212
100
AcDbEntity
  8
0
  6
CONTINUOUS
 62
     1
100
AcDbLine
 10
66.64703249838612
 20
664.8873488317754
 30
0.0
 11
66.21273953943819
 21
664.4406663925583
 31
0.0
  0
LINE
  5
507
330
212
100
AcDbEntity
  8
0
  6
CONTINUOUS
 62
     7
100
AcDbLine
 10
66.0187717084973
 20
664.6715233689533
 30
0.0
 11
63.90939508838119
 21
666.7223929206903
 31
0.0
  0
LINE
  5
508
330
212
100
AcDbEntity
  8
0
  6
CONTINUOUS
 62
     1
100
AcDbLine
 10
60.23663651604511
 20
678.3583187657414
 30
0.0
 11
59.99190870910206
 21
677.4169453333043
 31
0.0
  0
LINE
  5
509
330
212
100
AcDbEntity
  8
0
  6
CONTINUOUS
 62
     7
100
AcDbLine
 10
53.48784621482128
 20
680.1127942924504
 30
0.0
 11
60.23663651604511
 21
678.3583187657414
 31
0.0
  0
LINE
  5
50A
330
212
100
AcDbEntity
  8
0
  6
CONTINUOUS
 62
     1
100
AcDbLine
 10
59.01992190673718
 20
676.9181195958672
 30
0.0
 11
53.48784621482128
 21
678.3562871755594
 31
0.0
  0
LINE
  5
50B
330
212
100
AcDbEntity
  8
0
  6
CONTINUOUS
 62
     7
100
AcDbLine
 10
53.48784621482128
 20
675.2701685662855
 30
0.0
 11
54.32977048779412
 21
674.9059854271045
 31
0.0
  0
ARC
  5
50C
330
212
100
AcDbEntity
  8
0
  6
CONTINUOUS
 62
     7
100
AcDbCircle
 10
64.9731313872503
 20
663.5960530910838
 30
0.0
 40
1.499999999999444
100
AcDbArc
 50
34.26875942208596
 51
45.80571845489771
  0
ARC
  5
50D
330
212
100
AcDbEntity
  8
0
  6
CONTINUOUS
 62
     1
100
AcDbCircle
 10
63.96938931652039
 20
661.7824773383622
 30
0.0
 40
4.100000000000237
100
AcDbArc
 50
38.1054319821821
 51
49.22549462527761
  0
ARC
  5
50E
330
212
100
AcDbEntity
  8
0
  6
CONTINUOUS
 62
     7
100
AcDbCircle
 10
64.97313139050357
 20
663.5960530804614
 30
0.0
 40
1.500000003292128
100
AcDbArc
 50
359.7751714658094
 51
34.2687598273687
  0
ARC
  5
50F
330
212
100
AcDbEntity
  8
0
  6
CONTINUOUS
 62
     7
100
AcDbCircle
 10
63.1201025490368
 20
673.6833402133748
 30
0.0
 40
4.74999999966456
100
AcDbArc
 50
60.65121708272607
 51
102.3873242712137
  0
ARC
  5
510
330
212
100
AcDbEntity
  8
0
  6
CONTINUOUS
 62
     1
100
AcDbCircle
 10
63.12010251106767
 20
673.6833402190359
 30
0.0
 40
3.049999986063217
100
AcDbArc
 50
60.65121638129027
 51
102.387323589998
  0
ARC
  5
511
330
212
100
AcDbEntity
  8
0
  6
CONTINUOUS
 62
     7
100
AcDbCircle
 10
61.24305911368674
 20
682.2296381215883
 30
0.0
 40
3.999999999999857
100
AcDbArc
 50
255.4274533950476
 51
282.387324294896
  0
ARC
  5
512
330
212
100
AcDbEntity
  8
0
  6
CONTINUOUS
 62
     7
100
AcDbCircle
 10
52.22561679036926
 20
670.0415700236244
 30
0.0
 40
5.300000000000087
100
AcDbArc
 50
61.84810006309117
 51
66.60860007169158
  0
SPLINE
  5
513
330
212
100
AcDbEntity
  8
0
  6
CONTINUOUS
 62
     7
100
AcDbSpline
210
0.0
220
0.0
230
1.0
 70
  1064
 71
     3
 72
    11
 73
     7
 74
     5
 42
0.000000001
 43
0.0000000001
 44
0.00000001
 40
0.0
 40
0.0
 40
0.0
 40
0.0
 40
0.2697585474111273
 40
0.5461102397063385
 40
0.8361444098038779
 40
1.133848248638761
 40
1.133848248638761
 40
1.133848248638761
 40
1.133848248638761
 10
66.63704475500936
 20
663.7540920078122
 30
0.0
 10
66.64230588627198
 20
663.8438646984794
 30
0.0
 10
66.65295672060184
 20
664.025604206996
 30
0.0
 10
66.65876215513748
 20
664.3043107891654
 30
0.0
 10
66.65790260408494
 20
664.5923821073532
 30
0.0
 10
66.65068725747274
 20
664.7881749263605
 30
0.0
 10
66.64703249838612
 20
664.8873488317754
 30
0.0
 11
66.63704475500936
 21
663.7540920078122
 31
0.0
 11
66.65115451485696
 21
664.0234812961583
 31
0.0
 11
66.65759684390514
 21
664.2997578865507
 31
0.0
 11
66.65629555078351
 21
664.5897891376587
 31
0.0
 11
66.64703249838612
 21
664.8873488317754
 31
0.0
  0
ENDBLK
  5
214
330
212
100
AcDbEntity
  8
0
100
AcDbBlockEnd
  0
BLOCK
  5
217
330
215
100
AcDbEntity
  8
0
100
AcDbBlockBegin
  2
PD05300A09100_BIELLA_I_103
 70
     0
 10
53.48784621482128
 20
663.5901670982926
 30
0.0
  3
PD05300A09100_BIELLA_I_103
  1

  0
INSERT
  5
216
330
215
100
AcDbEntity
  8
0
100
AcDbBlockReference
  2
PX007445_BIELLA_INTERN_102
 10
53.48784621482128
 20
663.5901670982926
 30
0.0
  0
ENDBLK
  5
218
330
215
100
AcDbEntity
  8
0
100
AcDbBlockEnd
  0
BLOCK
  5
21A
330
219
100
AcDbEntity
  8
0
100
AcDbBlockBegin
  2
PX007446_BIELLA_INTERN_104
 70
     0
 10
53.48784621482128
 20
661.5310989740424
 30
0.0
  3
PX007446_BIELLA_INTERN_104
  1

  0
LINE
  5
514
330
219
100
AcDbEntity
  8
0
  6
CONTINUOUS
 62
     7
100
AcDbLine
 10
74.97655606184207
 20
672.4659492705855
 30
0.0
 11
65.44819522394528
 21
677.8236885675415
 31
0.0
  0
LINE
  5
515
330
219
100
AcDbEntity
  8
0
  6
CONTINUOUS
 62
     1
100
AcDbLine
 10
73.96652010344633
 20
671.0835673562524
 30
0.0
 11
64.61498309656736
 21
676.3418796582923
 31
0.0
  0
LINE
  5
516
330
219
100
AcDbEntity
  8
0
  6
CONTINUOUS
 62
     7
100
AcDbLine
 10
68.9903662239094
 20
668.4864961893504
 30
0.0
 11
71.27165125795636
 21
668.3886985107615
 31
0.0
  0
LINE
  5
517
330
219
100
AcDbEntity
  8
0
  6
CONTINUOUS
 62
     1
100
AcDbLine
 10
64.61498309656736
 20
676.3418796582923
 30
0.0
 11
65.44819522394528
 21
677.8236885675415
 31
0.0
  0
LINE
  5
518
330
219
100
AcDbEntity
  8
0
  6
CONTINUOUS
 62
     7
100
AcDbLine
 10
75.19502185642614
 20
672.3120691092336
 30
0.0
 11
75.13185478420246
 21
672.3619242774193
 31
0.0
  0
LINE
  5
519
330
219
100
AcDbEntity
  8
0
  6
CONTINUOUS
 62
     1
100
AcDbLine
 10
53.48784621482128
 20
672.1682459835865
 30
0.0
 11
61.72751684540026
 21
676.3968628419007
 31
0.0
  0
LINE
  5
51A
330
219
100
AcDbEntity
  8
0
  6
CONTINUOUS
 62
     7
100
AcDbLine
 10
60.95132153252007
 20
677.9093180774444
 30
0.0
 11
53.48784621482128
 21
674.0790463390445
 31
0.0
  0
LINE
  5
51B
330
219
100
AcDbEntity
  8
0
  6
CONTINUOUS
 62
     7
100
AcDbLine
 10
56.76265436868744
 20
666.9438939642282
 30
0.0
 11
55.62525469559614
 21
666.9926537841652
 31
0.0
  0
LINE
  5
51C
330
219
100
AcDbEntity
  8
0
  6
CONTINUOUS
 62
     1
100
AcDbLine
 10
56.08635140662727
 20
666.8428815872644
 30
0.0
 11
56.03975055670026
 21
666.9748845302593
 31
0.0
  0
LINE
  5
51D
330
219
100
AcDbEntity
  8
0
  6
CONTINUOUS
 62
     7
100
AcDbLine
 10
53.90926778991843
 20
661.9865561083766
 30
0.0
 11
54.06238582037304
 21
665.5582755638693
 31
0.0
  0
LINE
  5
51E
330
219
100
AcDbEntity
  8
0
  6
CONTINUOUS
 62
     7
100
AcDbLine
 10
62.82005319467817
 20
666.6842159605326
 30
0.0
 11
60.55390538224538
 21
666.7813647131384
 31
0.0
  0
LINE
  5
51F
330
219
100
AcDbEntity
  8
0
  6
CONTINUOUS
 62
     7
100
AcDbLine
 10
54.2311681481583
 20
666.1879483365133
 30
0.0
 11
56.08635140662727
 21
666.8428815872644
 31
0.0
  0
LINE
  5
520
330
219
100
AcDbEntity
  8
0
  6
CONTINUOUS
 62
     7
100
AcDbLine
 10
56.76265436868744
 20
666.9438939642282
 30
0.0
 11
60.55390538224538
 21
666.7813647131384
 31
0.0
  0
LINE
  5
521
330
219
100
AcDbEntity
  8
0
  6
CONTINUOUS
 62
     1
100
AcDbLine
 10
61.63619974996936
 20
676.5747987519612
 30
0.0
 11
60.95132153252007
 21
677.9093180774444
 31
0.0
  0
ARC
  5
522
330
219
100
AcDbEntity
  8
0
  6
CONTINUOUS
 62
     7
100
AcDbCircle
 10
68.86187556898085
 20
665.489249093831
 30
0.0
 40
3.000000000000644
100
AcDbArc
 50
87.5452583571563
 51
125.0197418880482
  0
ARC
  5
523
330
219
100
AcDbEntity
  8
0
  6
CONTINUOUS
 62
     7
100
AcDbCircle
 10
74.38840633309292
 20
671.4199665283177
 30
0.0
 40
1.200000000229114
100
AcDbArc
 50
51.71742195611098
 51
60.65121707191263
  0
ARC
  5
524
330
219
100
AcDbEntity
  8
0
  6
CONTINUOUS
 62
     7
100
AcDbCircle
 10
56.68555997573003
 20
665.1455457069164
 30
0.0
 40
1.800000000000489
100
AcDbArc
 50
87.54525835714753
 51
109.4445026553604
  0
ARC
  5
525
330
219
100
AcDbEntity
  8
0
  6
CONTINUOUS
 62
     7
100
AcDbCircle
 10
50.01284656574308
 20
662.1535939597838
 30
0.0
 40
3.90000000000087
100
AcDbArc
 50
350.8155021403827
 51
357.5452583571544
  0
ARC
  5
526
330
219
100
AcDbEntity
  8
0
  6
CONTINUOUS
 62
     7
100
AcDbCircle
 10
55.56100936813346
 20
665.4940302364053
 30
0.0
 40
1.500000000000481
100
AcDbArc
 50
87.54525835721769
 51
177.5452583571661
  0
ARC
  5
527
330
219
100
AcDbEntity
  8
0
  6
CONTINUOUS
 62
     7
100
AcDbCircle
 10
63.1201025490368
 20
673.6833402133748
 30
0.0
 40
4.74999999966456
100
AcDbArc
 50
60.65121708272607
 51
102.3873242712137
  0
ARC
  5
528
330
219
100
AcDbEntity
  8
0
  6
CONTINUOUS
 62
     1
100
AcDbCircle
 10
63.12010251106767
 20
673.6833402190359
 30
0.0
 40
3.049999986063217
100
AcDbArc
 50
60.65121638129027
 51
102.387323589998
  0
ARC
  5
529
330
219
100
AcDbEntity
  8
0
  6
CONTINUOUS
 62
     1
100
AcDbCircle
 10
63.12010254942925
 20
673.6833402139891
 30
0.0
 40
3.049999999221864
100
AcDbArc
 50
102.387324273525
 51
117.1669930855088
  0
ARC
  5
52A
330
219
100
AcDbEntity
  8
0
  6
CONTINUOUS
 62
     7
100
AcDbCircle
 10
63.12010254565348
 20
673.6833402126313
 30
0.0
 40
4.749999999665067
100
AcDbArc
 50
102.3873242294294
 51
117.1669930619407
  0
ARC
  5
52B
330
219
100
AcDbEntity
  8
0
  6
CONTINUOUS
 62
     7
100
AcDbCircle
 10
63.12010254997495
 20
673.6833402140592
 30
0.0
 40
7.005552792743634
100
AcDbArc
 50
267.5452583587544
 51
305.0197418864818
  0
SPLINE
  5
52C
330
219
100
AcDbEntity
  8
0
  6
CONTINUOUS
 62
     1
100
AcDbSpline
210
0.0
220
0.0
230
1.0
 70
  1080
 71
     3
 72
    21
 73
    17
 74
    15
 42
0.000000001
 43
0.0000000001
 44
0.00000001
 40
0.0
 40
0.0
 40
0.0
 40
0.0
 40
0.0069819261558041
 40
0.0139513590314832
 40
0.1531529303553279
 40
0.2736726273130213
 40
0.3752638459466657
 40
0.4576799822992204
 40
0.5206744324140531
 40
0.5640005923340858
 40
0.6529808151368942
 40
0.749449356718694
 40
0.8455873103591294
 40
0.9335757693382347
 40
0.9984887258255146
 40
1.063401682312895
 40
1.063401682312895
 40
1.063401682312895
 40
1.063401682312895
 10
74.43420231329537
 20
671.5512495661014
 30
0.0
 10
74.43538928208473
 20
671.5532514329711
 30
0.0
 10
74.43776109573204
 20
671.5572515846214
 30
0.0
 10
74.46379800077507
 20
671.6011637902905
 30
0.0
 10
74.50913699915299
 20
671.6776296919968
 30
0.0
 10
74.57056226139389
 20
671.7812256741317
 30
0.0
 10
74.62233366343973
 20
671.8685400631316
 30
0.0
 10
74.66432543289488
 20
671.939360739181
 30
0.0
 10
74.69641179736159
 20
671.993475582467
 30
0.0
 10
74.72961409539518
 20
672.0494724890827
 30
0.0
 10
74.76850718719406
 20
672.1150671303642
 30
0.0
 10
74.81637859665298
 20
672.1958040372324
 30
0.0
 10
74.86408140039993
 20
672.276256584292
 30
0.0
 10
74.90641956783645
 20
672.3476614732998
 30
0.0
 10
74.94344930086775
 20
672.4101134908586
 30
0.0
 10
74.96552047484964
 20
672.4473373440104
 30
0.0
 10
74.97655606184207
 20
672.4659492705855
 30
0.0
 11
74.43420231329537
 21
671.5512495661014
 31
0.0
 11
74.43776321966334
 21
671.5572551667117
 31
0.0
 11
74.44131775423511
 21
671.5632500210545
 31
0.0
 11
74.51231302841147
 21
671.6829861831161
 31
0.0
 11
74.57378021479352
 21
671.7866528718527
 31
0.0
 11
74.62559354098221
 21
671.8740379674514
 31
0.0
 11
74.66762723457856
 21
671.9449293501
 31
0.0
 11
74.69975552318354
 21
671.9991148999864
 31
0.0
 11
74.72185263439815
 21
672.0363824972974
 31
0.0
 11
74.76723412869251
 21
672.1129200699356
 31
0.0
 11
74.81643479859127
 21
672.1958988238193
 31
0.0
 11
74.86546686277151
 21
672.2785932178982
 31
0.0
 11
74.91034253991029
 21
672.3542777111224
 31
0.0
 11
74.94344930086834
 21
672.4101134908584
 31
0.0
 11
74.97655606184207
 21
672.4659492705855
 31
0.0
  0
SPLINE
  5
52D
330
219
100
AcDbEntity
  8
0
  6
CONTINUOUS
 62
     1
100
AcDbSpline
210
0.0
220
0.0
230
1.0
 70
  1080
 71
     3
 72
    14
 73
    10
 74
     8
 42
0.000000001
 43
0.0000000001
 44
0.00000001
 40
0.0
 40
0.0
 40
0.0
 40
0.0
 40
0.0415048026867724
 40
0.0724493947982642
 40
0.1875504906529955
 40
0.3182743417734532
 40
0.4420245718038209
 40
0.5069375282968948
 40
0.5718504847894198
 40
0.5718504847894198
 40
0.5718504847894198
 40
0.5718504847894198
 10
74.78797486833128
 20
671.9050221211382
 30
0.0
 10
74.79629444861283
 20
671.9160760792101
 30
0.0
 10
74.81081682957452
 20
671.9353714985501
 30
0.0
 10
74.8484110659682
 20
671.9853217483032
 30
0.0
 10
74.90388913719161
 20
672.0590336727771
 30
0.0
 10
74.97796997015611
 20
672.157462486955
 30
0.0
 10
75.0419906600415
 20
672.2425247133372
 30
0.0
 10
75.0928196471607
 20
672.3100595495521
 30
0.0
 10
75.11884307185309
 20
672.3446360347984
 30
0.0
 10
75.13185478420246
 20
672.3619242774193
 30
0.0
 11
74.78797486833128
 21
671.9050221211382
 31
0.0
 11
74.81293360917618
 21
671.9381839953544
 31
0.0
 11
74.83154201121806
 21
671.9629083791565
 31
0.0
 11
74.90075757752705
 21
672.0548728703885
 31
0.0
 11
74.97936782288329
 21
672.1593197687473
 31
0.0
 11
75.05378451014622
 21
672.2581948216643
 31
0.0
 11
75.09281964716087
 21
672.3100595495524
 31
0.0
 11
75.13185478420246
 21
672.3619242774193
 31
0.0
  0
SPLINE
  5
52E
330
219
100
AcDbEntity
  8
0
  6
CONTINUOUS
 62
     1
100
AcDbSpline
210
0.0
220
0.0
230
1.0
 70
  1080
 71
     3
 72
    15
 73
    11
 74
     9
 42
0.000000001
 43
0.0000000001
 44
0.00000001
 40
0.0
 40
0.0
 40
0.0
 40
0.0
 40
0.0070211697293922
 40
0.0140423394589009
 40
0.0386919130301355
 40
0.0585786425399726
 40
0.0901981239010704
 40
0.1263810557891587
 40
0.1647111522376194
 40
0.2000000000175485
 40
0.2000000000175485
 40
0.2000000000175485
 40
0.2000000000175485
 10
61.63619974996936
 20
676.5747987519612
 30
0.0
 10
61.63726833801497
 20
676.57271655492
 30
0.0
 10
61.6394055141061
 20
676.5685521608374
 30
0.0
 10
61.64529423597187
 20
676.5570776929142
 30
0.0
 10
61.65314103375428
 20
676.5417878165119
 30
0.0
 10
61.66473157548428
 20
676.5192030684977
 30
0.0
 10
61.67807743851133
 20
676.4931979894677
 30
0.0
 10
61.69423029269514
 20
676.4617233482991
 30
0.0
 10
61.71094160668196
 20
676.4291605203744
 30
0.0
 10
61.72214605360151
 20
676.4073280973082
 30
0.0
 10
61.72751684540026
 20
676.3968628419007
 30
0.0
 11
61.63619974996936
 21
676.5747987519612
 31
0.0
 11
61.63940551410565
 21
676.5685521608369
 31
0.0
 11
61.6426112782392
 21
676.5623055697115
 31
0.0
 11
61.6538659155521
 21
676.5403753481849
 31
0.0
 11
61.66294590743428
 21
676.5226825316195
 31
0.0
 11
61.6773829034164
 21
676.4945513256632
 31
0.0
 11
61.69390350463345
 21
676.4623601110943
 31
0.0
 11
61.71140447000397
 21
676.4282586081238
 31
0.0
 11
61.72751684540026
 21
676.3968628419007
 31
0.0
  0
ENDBLK
  5
21B
330
219
100
AcDbEntity
  8
0
100
AcDbBlockEnd
  0
BLOCK
  5
21E
330
21C
100
AcDbEntity
  8
0
100
AcDbBlockBegin
  2
PD05300A09200_BIELLA_I_105
 70
     0
 10
53.48784621482128
 20
661.5310989740424
 30
0.0
  3
PD05300A09200_BIELLA_I_105
  1

  0
INSERT
  5
21D
330
21C
100
AcDbEntity
  8
0
100
AcDbBlockReference
  2
PX007446_BIELLA_INTERN_104
 10
53.48784621482128
 20
661.5310989740424
 30
0.0
  0
ENDBLK
  5
21F
330
21C
100
AcDbEntity
  8
0
100
AcDbBlockEnd
  0
BLOCK
  5
223
330
220
100
AcDbEntity
  8
0
100
AcDbBlockBegin
  2
GFS0060A00100_GRUPPO_B_106
 70
     0
 10
53.48784621482128
 20
661.5310989740424
 30
0.0
  3
GFS0060A00100_GRUPPO_B_106
  1

  0
INSERT
  5
221
330
220
100
AcDbEntity
  8
0
100
AcDbBlockReference
  2
PD05300A09100_BIELLA_I_103
 10
53.48784621482128
 20
663.5901670982926
 30
0.0
  0
INSERT
  5
222
330
220
100
AcDbEntity
  8
0
100
AcDbBlockReference
  2
PD05300A09200_BIELLA_I_105
 10
53.48784621482128
 20
661.5310989740424
 30
0.0
  0
ENDBLK
  5
224
330
220
100
AcDbEntity
  8
0
100
AcDbBlockEnd
  0
BLOCK
  5
227
330
225
100
AcDbEntity
  8
0
100
AcDbBlockBegin
  2
GFS0060A00200_GRUPPO_B_107
 70
     0
 10
53.48784621482128
 20
661.5310989740424
 30
0.0
  3
GFS0060A00200_GRUPPO_B_107
  1

  0
INSERT
  5
226
330
225
100
AcDbEntity
  8
0
100
AcDbBlockReference
  2
GFS0060A00100_GRUPPO_B_106
 10
53.48784621482128
 20
661.5310989740424
 30
0.0
  0
ENDBLK
  5
228
330
225
100
AcDbEntity
  8
0
100
AcDbBlockEnd
  0
BLOCK
  5
22C
330
229
100
AcDbEntity
  8
0
100
AcDbBlockBegin
  2
GFS0060A00300_GRUPPO_B_108
 70
     0
 10
53.48784621482128
 20
659.3376710903794
 30
0.0
  3
GFS0060A00300_GRUPPO_B_108
  1

  0
INSERT
  5
22A
330
229
100
AcDbEntity
  8
0
100
AcDbBlockReference
  2
PD00700A24600_CORPO_RE_101
 10
53.48784621482128
 20
659.3376710903794
 30
0.0
  0
INSERT
  5
22B
330
229
100
AcDbEntity
  8
0
100
AcDbBlockReference
  2
GFS0060A00200_GRUPPO_B_107
 10
53.48784621482128
 20
661.5310989740424
 30
0.0
  0
ENDBLK
  5
22D
330
229
100
AcDbEntity
  8
0
100
AcDbBlockEnd
  0
BLOCK
  5
230
330
22E
100
AcDbEntity
  8
0
100
AcDbBlockBegin
  2
GFS0060A00400_GRUPPO_B_109
 70
     0
 10
53.48784621482128
 20
659.3376710903794
 30
0.0
  3
GFS0060A00400_GRUPPO_B_109
  1

  0
INSERT
  5
22F
330
22E
100
AcDbEntity
  8
0
100
AcDbBlockReference
  2
GFS0060A00300_GRUPPO_B_108
 10
53.48784621482128
 20
659.3376710903794
 30
0.0
  0
ENDBLK
  5
231
330
22E
100
AcDbEntity
  8
0
100
AcDbBlockEnd
  0
BLOCK
  5
234
330
232
100
AcDbEntity
  8
0
100
AcDbBlockBegin
  2
GFS0060A00500_GRUPPO_C_110
 70
     0
 10
53.48784621482128
 20
659.3376710903794
 30
0.0
  3
GFS0060A00500_GRUPPO_C_110
  1

  0
INSERT
  5
233
330
232
100
AcDbEntity
  8
0
100
AcDbBlockReference
  2
GFS0060A00400_GRUPPO_B_109
 10
53.48784621482128
 20
659.3376710903794
 30
0.0
  0
ENDBLK
  5
235
330
232
100
AcDbEntity
  8
0
100
AcDbBlockEnd
  0
BLOCK
  5
238
330
236
100
AcDbEntity
  8
0
100
AcDbBlockBegin
  2
GFS0060A00700_GRUPPO_C_111
 70
     0
 10
53.48784621482128
 20
659.3376710903794
 30
0.0
  3
GFS0060A00700_GRUPPO_C_111
  1

  0
INSERT
  5
237
330
236
100
AcDbEntity
  8
0
100
AcDbBlockReference
  2
GFS0060A00500_GRUPPO_C_110
 10
53.48784621482128
 20
659.3376710903794
 30
0.0
  0
ENDBLK
  5
239
330
236
100
AcDbEntity
  8
0
100
AcDbBlockEnd
  0
BLOCK
  5
23C
330
23A
100
AcDbEntity
  8
0
100
AcDbBlockBegin
  2
00S0060A00100_CERNIERA_112
 70
     0
 10
53.48784621482128
 20
659.3376710903794
 30
0.0
  3
00S0060A00100_CERNIERA_112
  1

  0
INSERT
  5
23B
330
23A
100
AcDbEntity
  8
0
100
AcDbBlockReference
  2
GFS0060A00700_GRUPPO_C_111
 10
53.48784621482128
 20
659.3376710903794
 30
0.0
  0
ENDBLK
  5
23D
330
23A
100
AcDbEntity
  8
0
100
AcDbBlockEnd
  0
BLOCK
  5
23F
330
23E
100
AcDbEntity
  8
0
100
AcDbBlockBegin
  2
PX001697_STIPITE_MONTA_113
 70
     0
 10
1064.487846216876
 20
653.2035939654556
 30
0.0
  3
PX001697_STIPITE_MONTA_113
  1

  0
LINE
  5
52F
330
23E
100
AcDbEntity
  8
0
  6
CONTINUOUS
 62
     7
100
AcDbLine
 10
1077.487846214447
 20
653.2035939654556
 30
0.0
 11
1106.487846209028
 21
653.2035939655402
 31
0.0
  0
LINE
  5
530
330
23E
100
AcDbEntity
  8
0
  6
CONTINUOUS
 62
     7
100
AcDbLine
 10
1106.487846209028
 20
743.2035939655402
 30
0.0
 11
1064.487846216876
 21
743.2035939654165
 31
0.0
  0
LINE
  5
531
330
23E
100
AcDbEntity
  8
0
  6
CONTINUOUS
 62
     7
100
AcDbLine
 10
1064.487846216876
 20
743.2035939654165
 30
0.0
 11
1064.487846216876
 21
705.2035939653965
 31
0.0
  0
LINE
  5
532
330
23E
100
AcDbEntity
  8
0
  6
CONTINUOUS
 62
     7
100
AcDbLine
 10
1106.487846209028
 20
653.2035939655402
 30
0.0
 11
1106.487846209028
 21
743.2035939655402
 31
0.0
  0
LINE
  5
533
330
23E
100
AcDbEntity
  8
0
  6
CONTINUOUS
 62
     7
100
AcDbLine
 10
1075.487846214821
 20
703.2035939654293
 30
0.0
 11
1066.487846216502
 21
703.2035939654024
 31
0.0
  0
LINE
  5
534
330
23E
100
AcDbEntity
  8
0
  6
CONTINUOUS
 62
     7
100
AcDbLine
 10
1075.487846214821
 20
703.2035939654293
 30
0.0
 11
1075.487846214821
 21
655.2035939654493
 31
0.0
  0
ARC
  5
535
330
23E
100
AcDbEntity
  8
0
  6
CONTINUOUS
 62
     7
100
AcDbCircle
 10
1077.487846214634
 20
655.2035939652687
 30
0.0
 40
1.999999999812871
100
AcDbArc
 50
179.999999994828
 51
269.9999999946457
  0
ARC
  5
536
330
23E
100
AcDbEntity
  8
0
  6
CONTINUOUS
 62
     7
100
AcDbCircle
 10
1066.487846216689
 20
705.2035939652151
 30
0.0
 40
1.999999999812871
100
AcDbArc
 50
179.999999994802
 51
269.9999999946457
  0
ENDBLK
  5
240
330
23E
100
AcDbEntity
  8
0
100
AcDbBlockEnd
  0
BLOCK
  5
243
330
241
100
AcDbEntity
  8
0
100
AcDbBlockBegin
  2
TELAIO__114
 70
     0
 10
1064.487846216876
 20
653.2035939654556
 30
0.0
  3
TELAIO__114
  1

  0
INSERT
  5
242
330
241
100
AcDbEntity
  8
0
100
AcDbBlockReference
  2
PX001697_STIPITE_MONTA_113
 10
1064.487846216876
 20
653.2035939654556
 30
0.0
  0
ENDBLK
  5
244
330
241
100
AcDbEntity
  8
0
100
AcDbBlockEnd
  0
BLOCK
  5
246
330
245
100
AcDbEntity
  8
0
100
AcDbBlockBegin
  2
SCASSO_MONTANTE_S0043__115
 70
     0
 10
18.48784623443817
 20
653.2035939651405
 30
0.0
  3
SCASSO_MONTANTE_S0043__115
  1

  0
LINE
  5
537
330
245
100
AcDbEntity
  8
0
  6
CONTINUOUS
 62
     7
100
AcDbLine
 10
51.48784621444702
 20
653.2035939654556
 30
0.0
 11
18.48784623443817
 21
653.2035939651405
 31
0.0
  0
LINE
  5
538
330
245
100
AcDbEntity
  8
0
  6
CONTINUOUS
 62
     7
100
AcDbLine
 10
53.48784626527004
 20
671.2035939646535
 30
0.0
 11
53.48784621482128
 21
655.2035939654493
 31
0.0
  0
LINE
  5
539
330
245
100
AcDbEntity
  8
0
  6
CONTINUOUS
 62
     7
100
AcDbLine
 10
53.48784623443817
 20
689.2035939651405
 30
0.0
 11
53.48784626527004
 21
671.2035939646535
 31
0.0
  0
ARC
  5
53A
330
245
100
AcDbEntity
  8
0
  6
CONTINUOUS
 62
     7
100
AcDbCircle
 10
51.48784621463392
 20
655.2035939656425
 30
0.0
 40
2.000000000186901
100
AcDbArc
 50
269.9999999946457
 51
359.9999999944633
  0
ENDBLK
  5
247
330
245
100
AcDbEntity
  8
0
100
AcDbBlockEnd
  0
BLOCK
  5
24A
330
248
100
AcDbEntity
  8
0
100
AcDbBlockBegin
  2
PX004196_GRUPPO_N_3_SC_116
 70
     0
 10
18.48784623443817
 20
653.2035939651405
 30
0.0
  3
PX004196_GRUPPO_N_3_SC_116
  1

  0
INSERT
  5
249
330
248
100
AcDbEntity
  8
0
100
AcDbBlockReference
  2
SCASSO_MONTANTE_S0043__115
 10
18.48784623443817
 20
653.2035939651405
 30
0.0
  0
ENDBLK
  5
24B
330
248
100
AcDbEntity
  8
0
100
AcDbBlockEnd
  0
BLOCK
  5
24E
330
24C
100
AcDbEntity
  8
0
100
AcDbBlockBegin
  2
FRESATE_CERNIERE_TELAI_117
 70
     0
 10
18.48784623443817
 20
653.2035939651405
 30
0.0
  3
FRESATE_CERNIERE_TELAI_117
  1

  0
INSERT
  5
24D
330
24C
100
AcDbEntity
  8
0
100
AcDbBlockReference
  2
PX004196_GRUPPO_N_3_SC_116
 10
18.48784623443817
 20
653.2035939651405
 30
0.0
  0
ENDBLK
  5
24F
330
24C
100
AcDbEntity
  8
0
100
AcDbBlockEnd
  0
BLOCK
  5
253
330
250
100
AcDbEntity
  8
0
100
AcDbBlockBegin
  2
PX001692_TELAIO_BATTEN_118
 70
     0
 10
18.48784623443817
 20
653.2035939651405
 30
0.0
  3
PX001692_TELAIO_BATTEN_118
  1

  0
INSERT
  5
251
330
250
100
AcDbEntity
  8
0
100
AcDbBlockReference
  2
TELAIO__114
 10
1064.487846216876
 20
653.2035939654556
 30
0.0
  0
INSERT
  5
252
330
250
100
AcDbEntity
  8
0
100
AcDbBlockReference
  2
FRESATE_CERNIERE_TELAI_117
 10
18.48784623443817
 20
653.2035939651405
 30
0.0
  0
ENDBLK
  5
254
330
250
100
AcDbEntity
  8
0
100
AcDbBlockEnd
  0
BLOCK
  5
256
330
255
100
AcDbEntity
  8
0
100
AcDbBlockBegin
  2
PX004198_STIPITE_MONTA_119
 70
     0
 10
17.48784620809329
 20
653.2035939651405
 30
0.0
  3
PX004198_STIPITE_MONTA_119
  1

  0
LINE
  5
53B
330
255
100
AcDbEntity
  8
0
  6
CONTINUOUS
 62
     7
100
AcDbLine
 10
51.48784621444702
 20
653.2035939654556
 30
0.0
 11
18.48784623443817
 21
653.2035939651405
 31
0.0
  0
LINE
  5
53C
330
255
100
AcDbEntity
  8
0
  6
CONTINUOUS
 62
     7
100
AcDbLine
 10
18.48784623443817
 20
653.2035939651405
 30
0.0
 11
17.48784620809329
 21
653.2035939655552
 31
0.0
  0
LINE
  5
53D
330
255
100
AcDbEntity
  8
0
  6
CONTINUOUS
 62
     7
100
AcDbLine
 10
17.48784620809329
 20
743.2035939655552
 30
0.0
 11
64.48784621687628
 21
743.2035939654165
 31
0.0
  0
LINE
  5
53E
330
255
100
AcDbEntity
  8
0
  6
CONTINUOUS
 62
     7
100
AcDbLine
 10
64.48784621687628
 20
705.2035939654165
 30
0.0
 11
64.48784621687628
 21
743.2035939654165
 31
0.0
  0
LINE
  5
53F
330
255
100
AcDbEntity
  8
0
  6
CONTINUOUS
 62
     7
100
AcDbLine
 10
53.48784621482037
 20
703.2035939654493
 30
0.0
 11
53.48784623443817
 21
689.2035939651405
 31
0.0
  0
LINE
  5
540
330
255
100
AcDbEntity
  8
0
  6
CONTINUOUS
 62
     7
100
AcDbLine
 10
53.48784626527004
 20
671.2035939646535
 30
0.0
 11
53.48784621482128
 21
655.2035939654493
 31
0.0
  0
LINE
  5
541
330
255
100
AcDbEntity
  8
0
  6
CONTINUOUS
 62
     7
100
AcDbLine
 10
53.48784623443817
 20
689.2035939651405
 30
0.0
 11
53.48784626527004
 21
671.2035939646535
 31
0.0
  0
LINE
  5
542
330
255
100
AcDbEntity
  8
0
  6
CONTINUOUS
 62
     7
100
AcDbLine
 10
17.48784620809329
 20
743.2035939655552
 30
0.0
 11
17.48784620809329
 21
653.2035939655552
 31
0.0
  0
LINE
  5
543
330
255
100
AcDbEntity
  8
0
  6
CONTINUOUS
 62
     7
100
AcDbLine
 10
53.48784621482037
 20
703.2035939654493
 30
0.0
 11
62.48784621650202
 21
703.2035939654224
 31
0.0
  0
ARC
  5
544
330
255
100
AcDbEntity
  8
0
  6
CONTINUOUS
 62
     7
100
AcDbCircle
 10
62.48784621668892
 20
705.2035939656093
 30
0.0
 40
2.000000000186901
100
AcDbArc
 50
269.9999999946457
 51
359.9999999944763
  0
ARC
  5
545
330
255
100
AcDbEntity
  8
0
  6
CONTINUOUS
 62
     7
100
AcDbCircle
 10
51.48784621463392
 20
655.2035939656425
 30
0.0
 40
2.000000000186901
100
AcDbArc
 50
269.9999999946457
 51
359.9999999944633
  0
ENDBLK
  5
257
330
255
100
AcDbEntity
  8
0
100
AcDbBlockEnd
  0
BLOCK
  5
259
330
258
100
AcDbEntity
  8
0
100
AcDbBlockBegin
  2
SCASSO_PORTA_S0043_3__120
 70
     0
 10
56.44397871791216
 20
625.8625411608732
 30
0.0
  3
SCASSO_PORTA_S0043_3__120
  1

  0
LINE
  5
546
330
258
100
AcDbEntity
  8
0
  6
CONTINUOUS
 62
     7
100
AcDbLine
 10
81.07139571587732
 20
678.1884429686775
 30
0.0
 11
68.3434736545214
 21
665.4605209073165
 31
0.0
  0
LINE
  5
547
330
258
100
AcDbEntity
  8
0
  6
CONTINUOUS
 62
     7
100
AcDbLine
 10
82.48560927825929
 20
625.8625411608732
 30
0.0
 11
57.02976515553928
 21
651.3183852835932
 31
0.0
  0
LINE
  5
548
330
258
100
AcDbEntity
  8
0
  6
CONTINUOUS
 62
     7
100
AcDbLine
 10
68.3434736545214
 20
665.4605209073165
 30
0.0
 11
57.02976515553928
 21
654.1468124083394
 31
0.0
  0
ARC
  5
549
330
258
100
AcDbEntity
  8
0
  6
CONTINUOUS
 62
     7
100
AcDbCircle
 10
58.44397871791216
 20
652.7325988459665
 30
0.0
 40
1.999999999999694
100
AcDbArc
 50
135.0
 51
225.0000000000092
  0
ENDBLK
  5
25A
330
258
100
AcDbEntity
  8
0
100
AcDbBlockEnd
  0
BLOCK
  5
25D
330
25B
100
AcDbEntity
  8
0
100
AcDbBlockBegin
  2
PX004194_GRUPPO_N_3_SC_121
 70
     0
 10
56.44397871791216
 20
625.8625411608732
 30
0.0
  3
PX004194_GRUPPO_N_3_SC_121
  1

  0
INSERT
  5
25C
330
25B
100
AcDbEntity
  8
0
100
AcDbBlockReference
  2
SCASSO_PORTA_S0043_3__120
 10
56.44397871791216
 20
625.8625411608732
 30
0.0
  0
ENDBLK
  5
25E
330
25B
100
AcDbEntity
  8
0
100
AcDbBlockEnd
  0
BLOCK
  5
261
330
25F
100
AcDbEntity
  8
0
100
AcDbBlockBegin
  2
FRESATE_CERNIERE_TELAI_122
 70
     0
 10
56.44397871791216
 20
625.8625411608732
 30
0.0
  3
FRESATE_CERNIERE_TELAI_122
  1

  0
INSERT
  5
260
330
25F
100
AcDbEntity
  8
0
100
AcDbBlockReference
  2
PX004194_GRUPPO_N_3_SC_121
 10
56.44397871791216
 20
625.8625411608732
 30
0.0
  0
ENDBLK
  5
262
330
25F
100
AcDbEntity
  8
0
100
AcDbBlockEnd
  0
BLOCK
  5
264
330
263
100
AcDbEntity
  8
0
100
AcDbBlockBegin
  2
PX000466_1__123
 70
     0
 10
723.8314598145594
 20
24.11467037123657
 30
0.0
  3
PX000466_1__123
  1

  0
LINE
  5
54A
330
263
100
AcDbEntity
  8
0
  6
CONTINUOUS
 62
     1
100
AcDbLine
 10
726.6598869393033
 20
49.57051449394839
 30
0.0
 11
725.2456733769313
 21
48.15630093157552
 31
0.0
  0
LINE
  5
54B
330
263
100
AcDbEntity
  8
0
  6
CONTINUOUS
 62
     7
100
AcDbLine
 10
725.2456733769322
 20
50.98472805632264
 30
0.0
 11
723.8314598145594
 21
49.57051449394839
 31
0.0
  0
LINE
  5
54C
330
263
100
AcDbEntity
  8
0
  6
CONTINUOUS
 62
     7
100
AcDbLine
 10
725.2456733769322
 20
50.98472805632264
 30
0.0
 11
726.6598869393033
 21
49.57051449394839
 31
0.0
  0
LINE
  5
54D
330
263
100
AcDbEntity
  8
0
  6
CONTINUOUS
 62
     7
100
AcDbLine
 10
725.9527801581185
 20
47.44919415038839
 30
0.0
 11
747.8730903749051
 21
25.52888393360945
 31
0.0
  0
LINE
  5
54E
330
263
100
AcDbEntity
  8
0
  6
CONTINUOUS
 62
     7
100
AcDbLine
 10
749.2873039372785
 20
24.11467037123657
 30
0.0
 11
747.8730903749051
 21
25.52888393360945
 31
0.0
  0
LINE
  5
54F
330
263
100
AcDbEntity
  8
0
  6
CONTINUOUS
 62
     7
100
AcDbLine
 10
750.7015174996504
 20
25.52888393360945
 30
0.0
 11
749.2873039372771
 21
26.94309749598233
 31
0.0
  0
LINE
  5
550
330
263
100
AcDbEntity
  8
0
  6
CONTINUOUS
 62
     7
100
AcDbLine
 10
750.7015174996504
 20
25.52888393360945
 30
0.0
 11
749.2873039372785
 21
24.11467037123657
 31
0.0
  0
LINE
  5
551
330
263
100
AcDbEntity
  8
0
  6
CONTINUOUS
 62
     7
100
AcDbLine
 10
726.6598869393033
 20
49.57051449394839
 30
0.0
 11
749.2873039372771
 21
26.94309749598233
 31
0.0
  0
LINE
  5
552
330
263
100
AcDbEntity
  8
0
  6
CONTINUOUS
 62
     1
100
AcDbLine
 10
749.2873039372771
 20
26.94309749598233
 30
0.0
 11
747.8730903749051
 21
25.52888393360945
 31
0.0
  0
LINE
  5
553
330
263
100
AcDbEntity
  8
0
  6
CONTINUOUS
 62
     7
100
AcDbLine
 10
725.2456733769313
 20
48.15630093157552
 30
0.0
 11
725.9527801581185
 21
47.44919415038839
 31
0.0
  0
LINE
  5
554
330
263
100
AcDbEntity
  8
0
  6
CONTINUOUS
 62
     7
100
AcDbLine
 10
723.8314598145594
 20
49.57051449394839
 30
0.0
 11
725.2456733769313
 21
48.15630093157552
 31
0.0
  0
ENDBLK
  5
265
330
263
100
AcDbEntity
  8
0
100
AcDbBlockEnd
  0
BLOCK
  5
267
330
266
100
AcDbEntity
  8
0
100
AcDbBlockBegin
  2
PX000467_1__124
 70
     0
 10
731.1169846933062
 20
37.00103291620144
 30
0.0
  3
PX000467_1__124
  1

  0
LINE
  5
555
330
266
100
AcDbEntity
  8
0
  6
CONTINUOUS
 62
     7
100
AcDbLine
 10
735.8830541468515
 20
40.34734728640342
 30
0.0
 11
731.1169846933062
 21
53.44201548954834
 31
0.0
  0
LINE
  5
556
330
266
100
AcDbEntity
  8
0
  6
CONTINUOUS
 62
     7
100
AcDbLine
 10
732.9963699348773
 20
54.12605577620025
 30
0.0
 11
731.1169846933062
 21
53.44201548954834
 31
0.0
  0
LINE
  5
557
330
266
100
AcDbEntity
  8
0
  6
CONTINUOUS
 62
     7
100
AcDbLine
 10
739.2293685170544
 20
37.00103291620144
 30
0.0
 11
732.9963699348773
 21
54.12605577620025
 31
0.0
  0
ENDBLK
  5
268
330
266
100
AcDbEntity
  8
0
100
AcDbBlockEnd
  0
BLOCK
  5
26C
330
269
100
AcDbEntity
  8
0
100
AcDbBlockBegin
  2
CM06100A01100_MANIGLIA_125
 70
     0
 10
723.8314598145594
 20
24.11467037123657
 30
0.0
  3
CM06100A01100_MANIGLIA_125
  1

  0
INSERT
  5
26A
330
269
100
AcDbEntity
  8
0
100
AcDbBlockReference
  2
PX000466_1__123
 10
723.8314598145594
 20
24.11467037123657
 30
0.0
  0
INSERT
  5
26B
330
269
100
AcDbEntity
  8
0
100
AcDbBlockReference
  2
PX000467_1__124
 10
731.1169846933062
 20
37.00103291620144
 30
0.0
  0
ENDBLK
  5
26D
330
269
100
AcDbEntity
  8
0
100
AcDbBlockEnd
  0
BLOCK
  5
26F
330
26E
100
AcDbEntity
  8
0
100
AcDbBlockBegin
  2
PX000467_1__126
 70
     0
 10
686.749006597734
 20
1.64569385687128
 30
0.0
  3
PX000467_1__126
  1

  0
LINE
  5
558
330
26E
100
AcDbEntity
  8
0
  6
CONTINUOUS
 62
     7
100
AcDbLine
 10
686.749006597734
 20
7.87869243904242
 30
0.0
 11
703.8740294577342
 21
1.64569385687128
 31
0.0
  0
LINE
  5
559
330
26E
100
AcDbEntity
  8
0
  6
CONTINUOUS
 62
     7
100
AcDbLine
 10
687.433046884385
 20
9.7580776806135
 30
0.0
 11
700.5277150875313
 21
4.99200822707326
 31
0.0
  0
LINE
  5
55A
330
26E
100
AcDbEntity
  8
0
  6
CONTINUOUS
 62
     7
100
AcDbLine
 10
686.749006597734
 20
7.87869243904242
 30
0.0
 11
687.433046884385
 21
9.7580776806135
 31
0.0
  0
ENDBLK
  5
270
330
26E
100
AcDbEntity
  8
0
100
AcDbBlockEnd
  0
BLOCK
  5
272
330
271
100
AcDbEntity
  8
0
100
AcDbBlockBegin
  2
PX000466_1__127
 70
     0
 10
689.8903343176103
 20
-9.82645512572071
 30
0.0
  3
PX000466_1__127
  1

  0
LINE
  5
55B
330
271
100
AcDbEntity
  8
0
  6
CONTINUOUS
 62
     7
100
AcDbLine
 10
715.3461784403294
 20
-6.9980280009745
 30
0.0
 11
693.4258682235422
 21
14.92228221580444
 31
0.0
  0
LINE
  5
55C
330
271
100
AcDbEntity
  8
0
  6
CONTINUOUS
 62
     1
100
AcDbLine
 10
691.3045478799822
 20
14.21517543461823
 30
0.0
 11
692.7187614423551
 21
15.62938899699157
 31
0.0
  0
LINE
  5
55D
330
271
100
AcDbEntity
  8
0
  6
CONTINUOUS
 62
     7
100
AcDbLine
 10
693.4258682235422
 20
14.92228221580444
 30
0.0
 11
692.7187614423551
 21
15.62938899699157
 31
0.0
  0
LINE
  5
55E
330
271
100
AcDbEntity
  8
0
  6
CONTINUOUS
 62
     7
100
AcDbLine
 10
713.931964877956
 20
-8.41224156334738
 30
0.0
 11
691.3045478799822
 21
14.21517543461823
 31
0.0
  0
LINE
  5
55F
330
271
100
AcDbEntity
  8
0
  6
CONTINUOUS
 62
     7
100
AcDbLine
 10
692.7187614423551
 20
15.62938899699157
 30
0.0
 11
691.3045478799822
 21
17.04360255936354
 31
0.0
  0
LINE
  5
560
330
271
100
AcDbEntity
  8
0
  6
CONTINUOUS
 62
     7
100
AcDbLine
 10
691.3045478799822
 20
17.04360255936354
 30
0.0
 11
689.8903343176103
 21
15.62938899699157
 31
0.0
  0
LINE
  5
561
330
271
100
AcDbEntity
  8
0
  6
CONTINUOUS
 62
     7
100
AcDbLine
 10
691.3045478799822
 20
14.21517543461823
 30
0.0
 11
689.8903343176103
 21
15.62938899699157
 31
0.0
  0
LINE
  5
562
330
271
100
AcDbEntity
  8
0
  6
CONTINUOUS
 62
     7
100
AcDbLine
 10
715.3461784403294
 20
-6.9980280009745
 30
0.0
 11
716.7603920027022
 21
-8.41224156334738
 31
0.0
  0
LINE
  5
563
330
271
100
AcDbEntity
  8
0
  6
CONTINUOUS
 62
     7
100
AcDbLine
 10
713.931964877956
 20
-8.41224156334738
 30
0.0
 11
715.3461784403303
 21
-9.82645512572071
 31
0.0
  0
LINE
  5
564
330
271
100
AcDbEntity
  8
0
  6
CONTINUOUS
 62
     1
100
AcDbLine
 10
713.931964877956
 20
-8.41224156334738
 30
0.0
 11
715.3461784403294
 21
-6.9980280009745
 31
0.0
  0
LINE
  5
565
330
271
100
AcDbEntity
  8
0
  6
CONTINUOUS
 62
     7
100
AcDbLine
 10
715.3461784403303
 20
-9.82645512572071
 30
0.0
 11
716.7603920027022
 21
-8.41224156334738
 31
0.0
  0
ENDBLK
  5
273
330
271
100
AcDbEntity
  8
0
100
AcDbBlockEnd
  0
BLOCK
  5
277
330
274
100
AcDbEntity
  8
0
100
AcDbBlockBegin
  2
CM06100A01100_MANIGLIA_128
 70
     0
 10
686.749006597734
 20
-9.82645512572071
 30
0.0
  3
CM06100A01100_MANIGLIA_128
  1

  0
INSERT
  5
275
330
274
100
AcDbEntity
  8
0
100
AcDbBlockReference
  2
PX000467_1__126
 10
686.749006597734
 20
1.64569385687128
 30
0.0
  0
INSERT
  5
276
330
274
100
AcDbEntity
  8
0
100
AcDbBlockReference
  2
PX000466_1__127
 10
689.8903343176103
 20
-9.82645512572071
 30
0.0
  0
ENDBLK
  5
278
330
274
100
AcDbEntity
  8
0
100
AcDbBlockEnd
  0
BLOCK
  5
27A
330
279
100
AcDbEntity
  8
0
100
AcDbBlockBegin
  2
PX001595_PX001297_1187_129
 70
     0
 10
56.44397871791216
 20
-64.15235693351269
 30
0.0
  3
PX001595_PX001297_1187_129
  1

  0
LINE
  5
566
330
279
100
AcDbEntity
  8
0
  6
CONTINUOUS
 62
     7
100
AcDbLine
 10
89.55667709011504
 20
683.8452972181803
 30
0.0
 11
723.8314598145594
 21
49.57051449394839
 31
0.0
  0
LINE
  5
567
330
279
100
AcDbEntity
  8
0
  6
CONTINUOUS
 62
     7
100
AcDbLine
 10
81.07139571587732
 20
678.1884429686775
 30
0.0
 11
68.3434736545214
 21
665.4605209073165
 31
0.0
  0
LINE
  5
568
330
279
100
AcDbEntity
  8
0
  6
CONTINUOUS
 62
     7
100
AcDbLine
 10
86.72824996536929
 20
683.8452972181794
 30
0.0
 11
81.07139571587732
 21
678.1884429686775
 31
0.0
  0
LINE
  5
569
330
279
100
AcDbEntity
  8
0
  6
CONTINUOUS
 62
     7
100
AcDbLine
 10
691.3045478799822
 20
17.04360255936354
 30
0.0
 11
82.48560927825929
 21
625.8625411608732
 31
0.0
  0
LINE
  5
56A
330
279
100
AcDbEntity
  8
0
  6
CONTINUOUS
 62
     7
100
AcDbLine
 10
749.2873039372785
 20
24.11467037123657
 30
0.0
 11
804.4416328698362
 21
-31.03965856129844
 31
0.0
  0
LINE
  5
56B
330
279
100
AcDbEntity
  8
0
  6
CONTINUOUS
 62
     7
100
AcDbLine
 10
715.3461784403294
 20
-6.9980280009745
 30
0.0
 11
693.4258682235422
 21
14.92228221580444
 31
0.0
  0
LINE
  5
56C
330
279
100
AcDbEntity
  8
0
  6
CONTINUOUS
 62
     7
100
AcDbLine
 10
693.4258682235422
 20
14.92228221580444
 30
0.0
 11
692.7187614423551
 21
15.62938899699157
 31
0.0
  0
LINE
  5
56D
330
279
100
AcDbEntity
  8
0
  6
CONTINUOUS
 62
     7
100
AcDbLine
 10
692.7187614423551
 20
15.62938899699157
 30
0.0
 11
691.3045478799822
 21
17.04360255936354
 31
0.0
  0
LINE
  5
56E
330
279
100
AcDbEntity
  8
0
  6
CONTINUOUS
 62
     7
100
AcDbLine
 10
82.48560927825929
 20
625.8625411608732
 30
0.0
 11
57.02976515553928
 21
651.3183852835932
 31
0.0
  0
LINE
  5
56F
330
279
100
AcDbEntity
  8
0
  6
CONTINUOUS
 62
     7
100
AcDbLine
 10
68.3434736545214
 20
665.4605209073165
 30
0.0
 11
57.02976515553928
 21
654.1468124083394
 31
0.0
  0
LINE
  5
570
330
279
100
AcDbEntity
  8
0
  6
CONTINUOUS
 62
     7
100
AcDbLine
 10
804.4416328698362
 20
-33.86808568604465
 30
0.0
 11
774.7431480600062
 21
-63.56657049588557
 31
0.0
  0
LINE
  5
571
330
279
100
AcDbEntity
  8
0
  6
CONTINUOUS
 62
     7
100
AcDbLine
 10
725.9527801581185
 20
47.44919415038839
 30
0.0
 11
747.8730903749051
 21
25.52888393360945
 31
0.0
  0
LINE
  5
572
330
279
100
AcDbEntity
  8
0
  6
CONTINUOUS
 62
     7
100
AcDbLine
 10
771.9147209352604
 20
-63.56657049588557
 30
0.0
 11
716.7603920027022
 21
-8.41224156334738
 31
0.0
  0
LINE
  5
573
330
279
100
AcDbEntity
  8
0
  6
CONTINUOUS
 62
     7
100
AcDbLine
 10
715.3461784403294
 20
-6.9980280009745
 30
0.0
 11
716.7603920027022
 21
-8.41224156334738
 31
0.0
  0
LINE
  5
574
330
279
100
AcDbEntity
  8
0
  6
CONTINUOUS
 62
     7
100
AcDbLine
 10
749.2873039372785
 20
24.11467037123657
 30
0.0
 11
747.8730903749051
 21
25.52888393360945
 31
0.0
  0
LINE
  5
575
330
279
100
AcDbEntity
  8
0
  6
CONTINUOUS
 62
     7
100
AcDbLine
 10
725.2456733769313
 20
48.15630093157552
 30
0.0
 11
725.9527801581185
 21
47.44919415038839
 31
0.0
  0
LINE
  5
576
330
279
100
AcDbEntity
  8
0
  6
CONTINUOUS
 62
     7
100
AcDbLine
 10
723.8314598145594
 20
49.57051449394839
 30
0.0
 11
725.2456733769313
 21
48.15630093157552
 31
0.0
  0
ARC
  5
577
330
279
100
AcDbEntity
  8
0
  6
CONTINUOUS
 62
     7
100
AcDbCircle
 10
88.14246352774217
 20
682.4310836558075
 30
0.0
 40
1.999999999999694
100
AcDbArc
 50
45.0
 51
135.0000000000184
  0
ARC
  5
578
330
279
100
AcDbEntity
  8
0
  6
CONTINUOUS
 62
     7
100
AcDbCircle
 10
58.44397871791216
 20
652.7325988459665
 30
0.0
 40
1.999999999999694
100
AcDbArc
 50
135.0
 51
225.0000000000092
  0
ARC
  5
579
330
279
100
AcDbEntity
  8
0
  6
CONTINUOUS
 62
     7
100
AcDbCircle
 10
803.0274193074633
 20
-32.45387212367268
 30
0.0
 40
1.999999999999051
100
AcDbArc
 50
315.0000000000184
 51
45.00000000002755
  0
ARC
  5
57A
330
279
100
AcDbEntity
  8
0
  6
CONTINUOUS
 62
     7
100
AcDbCircle
 10
773.3289344976333
 20
-62.15235693351269
 30
0.0
 40
1.999999999999694
100
AcDbArc
 50
225.0
 51
315.0
  0
ENDBLK
  5
27B
330
279
100
AcDbEntity
  8
0
100
AcDbBlockEnd
  0
BLOCK
  5
27E
330
27C
100
AcDbEntity
  8
0
100
AcDbBlockBegin
  2
PX001681_PANNELLO_1015_130
 70
     0
 10
56.44397871791216
 20
-64.15235693351269
 30
0.0
  3
PX001681_PANNELLO_1015_130
  1

  0
INSERT
  5
27D
330
27C
100
AcDbEntity
  8
0
100
AcDbBlockReference
  2
PX001595_PX001297_1187_129
 10
56.44397871791216
 20
-64.15235693351269
 30
0.0
  0
ENDBLK
  5
27F
330
27C
100
AcDbEntity
  8
0
100
AcDbBlockEnd
  0
BLOCK
  5
284
330
280
100
AcDbEntity
  8
0
100
AcDbBlockBegin
  2
PANNELLO__131
 70
     0
 10
56.44397871791216
 20
-64.15235693351269
 30
0.0
  3
PANNELLO__131
  1

  0
INSERT
  5
281
330
280
100
AcDbEntity
  8
0
100
AcDbBlockReference
  2
CM06100A01100_MANIGLIA_125
 10
723.8314598145594
 20
24.11467037123657
 30
0.0
  0
INSERT
  5
282
330
280
100
AcDbEntity
  8
0
100
AcDbBlockReference
  2
CM06100A01100_MANIGLIA_128
 10
686.749006597734
 20
-9.82645512572071
 30
0.0
  0
INSERT
  5
283
330
280
100
AcDbEntity
  8
0
100
AcDbBlockReference
  2
PX001681_PANNELLO_1015_130
 10
56.44397871791216
 20
-64.15235693351269
 30
0.0
  0
ENDBLK
  5
285
330
280
100
AcDbEntity
  8
0
100
AcDbBlockEnd
  0
BLOCK
  5
289
330
286
100
AcDbEntity
  8
0
100
AcDbBlockBegin
  2
PX001593_GRUPPO_ANTA_L_132
 70
     0
 10
56.44397871791216
 20
-64.15235693351269
 30
0.0
  3
PX001593_GRUPPO_ANTA_L_132
  1

  0
INSERT
  5
287
330
286
100
AcDbEntity
  8
0
100
AcDbBlockReference
  2
FRESATE_CERNIERE_TELAI_122
 10
56.44397871791216
 20
625.8625411608732
 30
0.0
  0
INSERT
  5
288
330
286
100
AcDbEntity
  8
0
100
AcDbBlockReference
  2
PANNELLO__131
 10
56.44397871791216
 20
-64.15235693351269
 30
0.0
  0
ENDBLK
  5
28A
330
286
100
AcDbEntity
  8
0
100
AcDbBlockEnd
  0
BLOCK
  5
290
330
28B
100
AcDbEntity
  8
0
100
AcDbBlockBegin
  2
TKKZ0TEC43200_TECNICO__133
 70
     0
 10
17.48784620809329
 20
-64.15235693351269
 30
0.0
  3
TKKZ0TEC43200_TECNICO__133
  1

  0
INSERT
  5
28C
330
28B
100
AcDbEntity
  8
0
100
AcDbBlockReference
  2
00S0060A00100_CERNIERA_112
 10
53.48784621482128
 20
659.3376710903794
 30
0.0
  0
INSERT
  5
28D
330
28B
100
AcDbEntity
  8
0
100
AcDbBlockReference
  2
PX001692_TELAIO_BATTEN_118
 10
18.48784623443817
 20
653.2035939651405
 30
0.0
  0
INSERT
  5
28E
330
28B
100
AcDbEntity
  8
0
100
AcDbBlockReference
  2
PX004198_STIPITE_MONTA_119
 10
17.48784620809329
 20
653.2035939651405
 30
0.0
  0
INSERT
  5
28F
330
28B
100
AcDbEntity
  8
0
100
AcDbBlockReference
  2
PX001593_GRUPPO_ANTA_L_132
 10
56.44397871791216
 20
-64.15235693351269
 30
0.0
  0
ENDBLK
  5
291
330
28B
100
AcDbEntity
  8
0
100
AcDbBlockEnd
  0
BLOCK
  5
294
330
292
100
AcDbEntity
  8
0
100
AcDbBlockBegin
  2
GEN9
 70
     0
 10
564.4879000000083
 20
672.4379000000054
 30
0.0
  3
GEN9
  1

  0
INSERT
  5
293
330
292
100
AcDbEntity
  8
0
100
AcDbBlockReference
  2
TKKZ0TEC43200_TECNICO__133
 10
17.48784620809329
 20
-64.15235693351269
 30
0.0
  0
MTEXT
  5
57B
330
292
100
AcDbEntity
  8
1
 62
     3
100
AcDbMText
 10
564.4677019597289
 20
641.809710961993
 30
0.0
 40
5.0
 41
0.0
 71
     5
 72
     1
  1
APERTURA 45%%d
  7
CONVERTER_11
1001
ACAD
1000
MTEXTBEGIN
1070
    44
1040
0.96038415366146
1000
MTEXTEND
  0
DIMENSION
  5
586
330
292
100
AcDbEntity
  8
1
100
AcDbDimension
  2
*D166
 10
1011.640365096909
 20
283.9562338115089
 30
0.0
 11
1022.087000138808
 21
320.9586071552655
 31
0.0
 70
    37
  1
<>
  3
ME10_DIM_14
100
AcDb3PointAngularDimension
 13
749.2873039372785
 23
24.11467037123657
 33
0.0
 14
1077.487846214447
 24
653.2035939654556
 34
0.0
 15
120.1983803456487
 25
653.2035939626636
 35
0.0
  0
ENDBLK
  5
295
330
292
100
AcDbEntity
  8
0
100
AcDbBlockEnd
  0
BLOCK
  5
297
330
296
100
AcDbEntity
  8
0
100
AcDbBlockBegin
  2
PX004198_STIPITE_MONTA_134
 70
     0
 10
-1574.507553791911
 20
653.2035939654497
 30
0.0
  3
PX004198_STIPITE_MONTA_134
  1

  0
LINE
  5
587
330
296
100
AcDbEntity
  8
0
  6
CONTINUOUS
 62
     7
100
AcDbLine
 10
-1540.507553785557
 20
653.2035939654497
 30
0.0
 11
-1573.507553830032
 21
653.2035939661537
 31
0.0
  0
LINE
  5
588
330
296
100
AcDbEntity
  8
0
  6
CONTINUOUS
 62
     7
100
AcDbLine
 10
-1573.507553830032
 20
653.2035939661537
 30
0.0
 11
-1574.507553791911
 21
653.2035939655507
 31
0.0
  0
LINE
  5
589
330
296
100
AcDbEntity
  8
0
  6
CONTINUOUS
 62
     7
100
AcDbLine
 10
-1527.507553783129
 20
705.2035939654115
 30
0.0
 11
-1527.507553783129
 21
743.2035939654115
 31
0.0
  0
LINE
  5
58A
330
296
100
AcDbEntity
  8
0
  6
CONTINUOUS
 62
     7
100
AcDbLine
 10
-1574.507553791911
 20
743.2035939655507
 30
0.0
 11
-1574.507553791911
 21
653.2035939655507
 31
0.0
  0
LINE
  5
58B
330
296
100
AcDbEntity
  8
0
  6
CONTINUOUS
 62
     7
100
AcDbLine
 10
-1538.507553785184
 20
703.2035939654434
 30
0.0
 11
-1529.507553783502
 21
703.2035939654179
 31
0.0
  0
LINE
  5
58C
330
296
100
AcDbEntity
  8
0
  6
CONTINUOUS
 62
     7
100
AcDbLine
 10
-1574.507553791911
 20
743.2035939655507
 30
0.0
 11
-1527.507553783129
 21
743.2035939654115
 31
0.0
  0
LINE
  5
58D
330
296
100
AcDbEntity
  8
0
  6
CONTINUOUS
 62
     7
100
AcDbLine
 10
-1538.507553830032
 20
689.2035939661537
 30
0.0
 11
-1538.5075537992
 21
671.2035939656671
 31
0.0
  0
LINE
  5
58E
330
296
100
AcDbEntity
  8
0
  6
CONTINUOUS
 62
     7
100
AcDbLine
 10
-1538.5075537992
 20
671.2035939656671
 30
0.0
 11
-1538.507553785184
 21
655.2035939654434
 31
0.0
  0
LINE
  5
58F
330
296
100
AcDbEntity
  8
0
  6
CONTINUOUS
 62
     7
100
AcDbLine
 10
-1538.507553785184
 20
703.2035939654434
 30
0.0
 11
-1538.507553830032
 21
689.2035939661537
 31
0.0
  0
ARC
  5
590
330
296
100
AcDbEntity
  8
0
  6
CONTINUOUS
 62
     7
100
AcDbCircle
 10
-1529.507553783315
 20
705.2035939656043
 30
0.0
 40
2.000000000186446
100
AcDbArc
 50
269.9999999946392
 51
359.9999999944763
  0
ARC
  5
591
330
296
100
AcDbEntity
  8
0
  6
CONTINUOUS
 62
     7
100
AcDbCircle
 10
-1540.50755378537
 20
655.2035939656362
 30
0.0
 40
2.000000000186446
100
AcDbArc
 50
269.9999999946392
 51
359.9999999944763
  0
ENDBLK
  5
298
330
296
100
AcDbEntity
  8
0
100
AcDbBlockEnd
  0
BLOCK
  5
29A
330
299
100
AcDbEntity
  8
0
100
AcDbBlockBegin
  2
PX001697_STIPITE_MONTA_135
 70
     0
 10
-527.5075537831272
 20
653.2035939654497
 30
0.0
  3
PX001697_STIPITE_MONTA_135
  1

  0
LINE
  5
592
330
299
100
AcDbEntity
  8
0
  6
CONTINUOUS
 62
     7
100
AcDbLine
 10
-514.5075537855573
 20
653.2035939654497
 30
0.0
 11
-485.5075537909761
 21
653.2035939655352
 31
0.0
  0
LINE
  5
593
330
299
100
AcDbEntity
  8
0
  6
CONTINUOUS
 62
     7
100
AcDbLine
 10
-527.5075537831272
 20
743.2035939654115
 30
0.0
 11
-527.5075537831272
 21
705.2035939653915
 31
0.0
  0
LINE
  5
594
330
299
100
AcDbEntity
  8
0
  6
CONTINUOUS
 62
     7
100
AcDbLine
 10
-485.5075537909761
 20
653.2035939655352
 30
0.0
 11
-485.5075537909761
 21
743.2035939655352
 31
0.0
  0
LINE
  5
595
330
299
100
AcDbEntity
  8
0
  6
CONTINUOUS
 62
     7
100
AcDbLine
 10
-516.5075537851826
 20
703.2035939654234
 30
0.0
 11
-525.5075537835019
 21
703.2035939653979
 31
0.0
  0
LINE
  5
596
330
299
100
AcDbEntity
  8
0
  6
CONTINUOUS
 62
     7
100
AcDbLine
 10
-516.5075537851826
 20
703.2035939654234
 30
0.0
 11
-516.5075537851826
 21
655.2035939654434
 31
0.0
  0
LINE
  5
597
330
299
100
AcDbEntity
  8
0
  6
CONTINUOUS
 62
     7
100
AcDbLine
 10
-485.5075537909761
 20
743.2035939655352
 30
0.0
 11
-527.5075537831272
 21
743.2035939654115
 31
0.0
  0
ARC
  5
598
330
299
100
AcDbEntity
  8
0
  6
CONTINUOUS
 62
     7
100
AcDbCircle
 10
-525.5075537833145
 20
705.2035939652096
 30
0.0
 40
1.999999999812644
100
AcDbArc
 50
179.999999994789
 51
269.9999999946327
  0
ARC
  5
599
330
299
100
AcDbEntity
  8
0
  6
CONTINUOUS
 62
     7
100
AcDbCircle
 10
-514.50755378537
 20
655.2035939652615
 30
0.0
 40
1.999999999812644
100
AcDbArc
 50
179.999999994789
 51
269.9999999946327
  0
ENDBLK
  5
29B
330
299
100
AcDbEntity
  8
0
100
AcDbBlockEnd
  0
BLOCK
  5
29E
330
29C
100
AcDbEntity
  8
0
100
AcDbBlockBegin
  2
TELAIO__136
 70
     0
 10
-527.5075537831272
 20
653.2035939654497
 30
0.0
  3
TELAIO__136
  1

  0
INSERT
  5
29D
330
29C
100
AcDbEntity
  8
0
100
AcDbBlockReference
  2
PX001697_STIPITE_MONTA_135
 10
-527.5075537831272
 20
653.2035939654497
 30
0.0
  0
ENDBLK
  5
29F
330
29C
100
AcDbEntity
  8
0
100
AcDbBlockEnd
  0
BLOCK
  5
2A1
330
2A0
100
AcDbEntity
  8
0
100
AcDbBlockBegin
  2
SCASSO_MONTANTE_S0043__137
 70
     0
 10
-1573.507553830032
 20
653.2035939654497
 30
0.0
  3
SCASSO_MONTANTE_S0043__137
  1

  0
LINE
  5
59A
330
2A0
100
AcDbEntity
  8
0
  6
CONTINUOUS
 62
     7
100
AcDbLine
 10
-1540.507553785557
 20
653.2035939654497
 30
0.0
 11
-1573.507553830032
 21
653.2035939661537
 31
0.0
  0
LINE
  5
59B
330
2A0
100
AcDbEntity
  8
0
  6
CONTINUOUS
 62
     7
100
AcDbLine
 10
-1538.507553830032
 20
689.2035939661537
 30
0.0
 11
-1538.5075537992
 21
671.2035939656671
 31
0.0
  0
LINE
  5
59C
330
2A0
100
AcDbEntity
  8
0
  6
CONTINUOUS
 62
     7
100
AcDbLine
 10
-1538.5075537992
 20
671.2035939656671
 30
0.0
 11
-1538.507553785184
 21
655.2035939654434
 31
0.0
  0
ARC
  5
59D
330
2A0
100
AcDbEntity
  8
0
  6
CONTINUOUS
 62
     7
100
AcDbCircle
 10
-1540.50755378537
 20
655.2035939656362
 30
0.0
 40
2.000000000186446
100
AcDbArc
 50
269.9999999946392
 51
359.9999999944763
  0
ENDBLK
  5
2A2
330
2A0
100
AcDbEntity
  8
0
100
AcDbBlockEnd
  0
BLOCK
  5
2A5
330
2A3
100
AcDbEntity
  8
0
100
AcDbBlockBegin
  2
PX004196_GRUPPO_N_3_SC_138
 70
     0
 10
-1573.507553830032
 20
653.2035939654497
 30
0.0
  3
PX004196_GRUPPO_N_3_SC_138
  1

  0
INSERT
  5
2A4
330
2A3
100
AcDbEntity
  8
0
100
AcDbBlockReference
  2
SCASSO_MONTANTE_S0043__137
 10
-1573.507553830032
 20
653.2035939654497
 30
0.0
  0
ENDBLK
  5
2A6
330
2A3
100
AcDbEntity
  8
0
100
AcDbBlockEnd
  0
BLOCK
  5
2A9
330
2A7
100
AcDbEntity
  8
0
100
AcDbBlockBegin
  2
FRESATE_CERNIERE_TELAI_139
 70
     0
 10
-1573.507553830032
 20
653.2035939654497
 30
0.0
  3
FRESATE_CERNIERE_TELAI_139
  1

  0
INSERT
  5
2A8
330
2A7
100
AcDbEntity
  8
0
100
AcDbBlockReference
  2
PX004196_GRUPPO_N_3_SC_138
 10
-1573.507553830032
 20
653.2035939654497
 30
0.0
  0
ENDBLK
  5
2AA
330
2A7
100
AcDbEntity
  8
0
100
AcDbBlockEnd
  0
BLOCK
  5
2AE
330
2AB
100
AcDbEntity
  8
0
100
AcDbBlockBegin
  2
PX001692_TELAIO_BATTEN_140
 70
     0
 10
-1573.507553830032
 20
653.2035939654497
 30
0.0
  3
PX001692_TELAIO_BATTEN_140
  1

  0
INSERT
  5
2AC
330
2AB
100
AcDbEntity
  8
0
100
AcDbBlockReference
  2
TELAIO__136
 10
-527.5075537831272
 20
653.2035939654497
 30
0.0
  0
INSERT
  5
2AD
330
2AB
100
AcDbEntity
  8
0
100
AcDbBlockReference
  2
FRESATE_CERNIERE_TELAI_139
 10
-1573.507553830032
 20
653.2035939654497
 30
0.0
  0
ENDBLK
  5
2AF
330
2AB
100
AcDbEntity
  8
0
100
AcDbBlockEnd
  0
BLOCK
  5
2B1
330
2B0
100
AcDbEntity
  8
0
100
AcDbBlockBegin
  2
SCASSO_PORTA_S0043_3__141
 70
     0
 10
-1535.00755383041
 20
653.2035939649713
 30
0.0
  3
SCASSO_PORTA_S0043_3__141
  1

  0
LINE
  5
59E
330
2B0
100
AcDbEntity
  8
0
  6
CONTINUOUS
 62
     7
100
AcDbLine
 10
-1535.00755383041
 20
689.2035939659927
 30
0.0
 11
-1535.007553830408
 21
671.2035939659918
 31
0.0
  0
LINE
  5
59F
330
2B0
100
AcDbEntity
  8
0
  6
CONTINUOUS
 62
     7
100
AcDbLine
 10
-1497.007553830405
 20
653.2035939659991
 30
0.0
 11
-1533.00755376594
 21
653.2035939649741
 31
0.0
  0
LINE
  5
5A0
330
2B0
100
AcDbEntity
  8
0
  6
CONTINUOUS
 62
     7
100
AcDbLine
 10
-1535.007553830408
 20
671.2035939659918
 30
0.0
 11
-1535.007553765941
 21
655.2035939649741
 31
0.0
  0
ARC
  5
5A1
330
2B0
100
AcDbEntity
  8
0
  6
CONTINUOUS
 62
     7
100
AcDbCircle
 10
-1533.007553765941
 20
655.2035939649759
 30
0.0
 40
2.0
100
AcDbArc
 50
180.0000000000521
 51
270.0000000000326
  0
ENDBLK
  5
2B2
330
2B0
100
AcDbEntity
  8
0
100
AcDbBlockEnd
  0
BLOCK
  5
2B5
330
2B3
100
AcDbEntity
  8
0
100
AcDbBlockBegin
  2
PX004194_GRUPPO_N_3_SC_142
 70
     0
 10
-1535.00755383041
 20
653.2035939649713
 30
0.0
  3
PX004194_GRUPPO_N_3_SC_142
  1

  0
INSERT
  5
2B4
330
2B3
100
AcDbEntity
  8
0
100
AcDbBlockReference
  2
SCASSO_PORTA_S0043_3__141
 10
-1535.00755383041
 20
653.2035939649713
 30
0.0
  0
ENDBLK
  5
2B6
330
2B3
100
AcDbEntity
  8
0
100
AcDbBlockEnd
  0
BLOCK
  5
2B9
330
2B7
100
AcDbEntity
  8
0
100
AcDbBlockBegin
  2
FRESATE_CERNIERE_TELAI_143
 70
     0
 10
-1535.00755383041
 20
653.2035939649713
 30
0.0
  3
FRESATE_CERNIERE_TELAI_143
  1

  0
INSERT
  5
2B8
330
2B7
100
AcDbEntity
  8
0
100
AcDbBlockReference
  2
PX004194_GRUPPO_N_3_SC_142
 10
-1535.00755383041
 20
653.2035939649713
 30
0.0
  0
ENDBLK
  5
2BA
330
2B7
100
AcDbEntity
  8
0
100
AcDbBlockEnd
  0
BLOCK
  5
2BC
330
2BB
100
AcDbEntity
  8
0
100
AcDbBlockBegin
  2
PX000466_1__144
 70
     0
 10
-636.007553765945
 20
699.2035939651178
 30
0.0
  3
PX000466_1__144
  1

  0
LINE
  5
5A2
330
2BB
100
AcDbEntity
  8
0
  6
CONTINUOUS
 62
     7
100
AcDbLine
 10
-633.007553765945
 20
699.2035939651178
 30
0.0
 11
-602.007553765945
 21
699.2035939651232
 31
0.0
  0
LINE
  5
5A3
330
2BB
100
AcDbEntity
  8
0
  6
CONTINUOUS
 62
     7
100
AcDbLine
 10
-636.007553765945
 20
701.2035939651196
 30
0.0
 11
-636.007553765945
 21
699.2035939651187
 31
0.0
  0
LINE
  5
5A4
330
2BB
100
AcDbEntity
  8
0
  6
CONTINUOUS
 62
     7
100
AcDbLine
 10
-636.007553765945
 20
701.2035939651196
 30
0.0
 11
-634.007553765945
 21
701.2035939651169
 31
0.0
  0
LINE
  5
5A5
330
2BB
100
AcDbEntity
  8
0
  6
CONTINUOUS
 62
     1
100
AcDbLine
 10
-602.007553765945
 20
701.2035939651232
 30
0.0
 11
-602.007553765945
 21
699.2035939651232
 31
0.0
  0
LINE
  5
5A6
330
2BB
100
AcDbEntity
  8
0
  6
CONTINUOUS
 62
     7
100
AcDbLine
 10
-634.007553765945
 20
701.2035939651169
 30
0.0
 11
-602.007553765945
 21
701.2035939651232
 31
0.0
  0
LINE
  5
5A7
330
2BB
100
AcDbEntity
  8
0
  6
CONTINUOUS
 62
     7
100
AcDbLine
 10
-600.007553765945
 20
701.2035939651232
 30
0.0
 11
-600.007553765945
 21
699.2035939651241
 31
0.0
  0
LINE
  5
5A8
330
2BB
100
AcDbEntity
  8
0
  6
CONTINUOUS
 62
     7
100
AcDbLine
 10
-600.007553765945
 20
699.2035939651241
 30
0.0
 11
-602.007553765945
 21
699.2035939651232
 31
0.0
  0
LINE
  5
5A9
330
2BB
100
AcDbEntity
  8
0
  6
CONTINUOUS
 62
     7
100
AcDbLine
 10
-600.007553765945
 20
701.2035939651232
 30
0.0
 11
-602.007553765945
 21
701.2035939651232
 31
0.0
  0
LINE
  5
5AA
330
2BB
100
AcDbEntity
  8
0
  6
CONTINUOUS
 62
     7
100
AcDbLine
 10
-634.007553765945
 20
699.2035939651178
 30
0.0
 11
-633.007553765945
 21
699.2035939651178
 31
0.0
  0
LINE
  5
5AB
330
2BB
100
AcDbEntity
  8
0
  6
CONTINUOUS
 62
     7
100
AcDbLine
 10
-636.007553765945
 20
699.2035939651187
 30
0.0
 11
-634.007553765945
 21
699.2035939651178
 31
0.0
  0
LINE
  5
5AC
330
2BB
100
AcDbEntity
  8
0
  6
CONTINUOUS
 62
     1
100
AcDbLine
 10
-634.007553765945
 20
701.2035939651169
 30
0.0
 11
-634.007553765945
 21
699.2035939651178
 31
0.0
  0
ENDBLK
  5
2BD
330
2BB
100
AcDbEntity
  8
0
100
AcDbBlockEnd
  0
BLOCK
  5
2BF
330
2BE
100
AcDbEntity
  8
0
100
AcDbBlockBegin
  2
PX000467_1__145
 70
     0
 10
-633.5934743270354
 20
701.2035939651187
 30
0.0
  3
PX000467_1__145
  1

  0
LINE
  5
5AD
330
2BE
100
AcDbEntity
  8
0
  6
CONTINUOUS
 62
     7
100
AcDbLine
 10
-616.2316224466922
 20
701.2035939651196
 30
0.0
 11
-632.7482378035547
 21
708.905418192815
 31
0.0
  0
LINE
  5
5AE
330
2BE
100
AcDbEntity
  8
0
  6
CONTINUOUS
 62
     7
100
AcDbLine
 10
-620.9640256129969
 20
701.2035939651187
 30
0.0
 11
-633.5934743270354
 21
707.092802618743
 31
0.0
  0
LINE
  5
5AF
330
2BE
100
AcDbEntity
  8
0
  6
CONTINUOUS
 62
     7
100
AcDbLine
 10
-632.7482378035547
 20
708.905418192815
 30
0.0
 11
-633.5934743270354
 21
707.092802618743
 31
0.0
  0
ENDBLK
  5
2C0
330
2BE
100
AcDbEntity
  8
0
100
AcDbBlockEnd
  0
BLOCK
  5
2C4
330
2C1
100
AcDbEntity
  8
0
100
AcDbBlockBegin
  2
CM06100A01100_MANIGLIA_146
 70
     0
 10
-636.007553765945
 20
699.2035939651178
 30
0.0
  3
CM06100A01100_MANIGLIA_146
  1

  0
INSERT
  5
2C2
330
2C1
100
AcDbEntity
  8
0
100
AcDbBlockReference
  2
PX000466_1__144
 10
-636.007553765945
 20
699.2035939651178
 30
0.0
  0
INSERT
  5
2C3
330
2C1
100
AcDbEntity
  8
0
100
AcDbBlockReference
  2
PX000467_1__145
 10
-633.5934743270354
 20
701.2035939651187
 30
0.0
  0
ENDBLK
  5
2C5
330
2C1
100
AcDbEntity
  8
0
100
AcDbBlockEnd
  0
BLOCK
  5
2C7
330
2C6
100
AcDbEntity
  8
0
100
AcDbBlockBegin
  2
PX001595_PX001297_1187_147
 70
     0
 10
-1535.00755383041
 20
653.2035939649713
 30
0.0
  3
PX001595_PX001297_1187_147
  1

  0
LINE
  5
5B0
330
2C6
100
AcDbEntity
  8
0
  6
CONTINUOUS
 62
     7
100
AcDbLine
 10
-1535.00755383041
 20
689.2035939659927
 30
0.0
 11
-1535.007553830408
 21
671.2035939659918
 31
0.0
  0
LINE
  5
5B1
330
2C6
100
AcDbEntity
  8
0
  6
CONTINUOUS
 62
     7
100
AcDbLine
 10
-1535.007553765947
 20
697.2035939649741
 30
0.0
 11
-1535.00755383041
 21
689.2035939659927
 31
0.0
  0
LINE
  5
5B2
330
2C6
100
AcDbEntity
  8
0
  6
CONTINUOUS
 62
     7
100
AcDbLine
 10
-636.0075537659359
 20
653.2035939651178
 30
0.0
 11
-1497.007553830405
 21
653.2035939659991
 31
0.0
  0
LINE
  5
5B3
330
2C6
100
AcDbEntity
  8
0
  6
CONTINUOUS
 62
     7
100
AcDbLine
 10
-522.0075537659395
 20
653.203593965145
 30
0.0
 11
-600.0075537659359
 21
653.203593965125
 31
0.0
  0
LINE
  5
5B4
330
2C6
100
AcDbEntity
  8
0
  6
CONTINUOUS
 62
     7
100
AcDbLine
 10
-1497.007553830405
 20
653.2035939659991
 30
0.0
 11
-1533.00755376594
 21
653.2035939649741
 31
0.0
  0
LINE
  5
5B5
330
2C6
100
AcDbEntity
  8
0
  6
CONTINUOUS
 62
     7
100
AcDbLine
 10
-600.007553765945
 20
699.2035939651241
 30
0.0
 11
-522.0075537659468
 21
699.203593965145
 31
0.0
  0
LINE
  5
5B6
330
2C6
100
AcDbEntity
  8
0
  6
CONTINUOUS
 62
     7
100
AcDbLine
 10
-633.007553765945
 20
699.2035939651178
 30
0.0
 11
-602.007553765945
 21
699.2035939651232
 31
0.0
  0
LINE
  5
5B7
330
2C6
100
AcDbEntity
  8
0
  6
CONTINUOUS
 62
     7
100
AcDbLine
 10
-600.007553765945
 20
699.2035939651241
 30
0.0
 11
-602.007553765945
 21
699.2035939651232
 31
0.0
  0
LINE
  5
5B8
330
2C6
100
AcDbEntity
  8
0
  6
CONTINUOUS
 62
     7
100
AcDbLine
 10
-520.0075537659468
 20
697.203593965146
 30
0.0
 11
-520.0075537659395
 21
655.203593965146
 31
0.0
  0
LINE
  5
5B9
330
2C6
100
AcDbEntity
  8
0
  6
CONTINUOUS
 62
     7
100
AcDbLine
 10
-634.007553765945
 20
699.2035939651178
 30
0.0
 11
-633.007553765945
 21
699.2035939651178
 31
0.0
  0
LINE
  5
5BA
330
2C6
100
AcDbEntity
  8
0
  6
CONTINUOUS
 62
     7
100
AcDbLine
 10
-636.007553765945
 20
699.2035939651187
 30
0.0
 11
-634.007553765945
 21
699.2035939651178
 31
0.0
  0
LINE
  5
5BB
330
2C6
100
AcDbEntity
  8
0
  6
CONTINUOUS
 62
     7
100
AcDbLine
 10
-602.0075537659359
 20
653.2035939651241
 30
0.0
 11
-633.0075537659359
 21
653.2035939651187
 31
0.0
  0
LINE
  5
5BC
330
2C6
100
AcDbEntity
  8
0
  6
CONTINUOUS
 62
     7
100
AcDbLine
 10
-633.0075537659359
 20
653.2035939651187
 30
0.0
 11
-634.0075537659377
 21
653.2035939651187
 31
0.0
  0
LINE
  5
5BD
330
2C6
100
AcDbEntity
  8
0
  6
CONTINUOUS
 62
     7
100
AcDbLine
 10
-634.0075537659377
 20
653.2035939651187
 30
0.0
 11
-636.0075537659359
 21
653.2035939651178
 31
0.0
  0
LINE
  5
5BE
330
2C6
100
AcDbEntity
  8
0
  6
CONTINUOUS
 62
     7
100
AcDbLine
 10
-602.0075537659359
 20
653.2035939651241
 30
0.0
 11
-600.0075537659359
 21
653.203593965125
 31
0.0
  0
LINE
  5
5BF
330
2C6
100
AcDbEntity
  8
0
  6
CONTINUOUS
 62
     7
100
AcDbLine
 10
-1533.007553765949
 20
699.2035939649741
 30
0.0
 11
-636.007553765945
 21
699.2035939651187
 31
0.0
  0
LINE
  5
5C0
330
2C6
100
AcDbEntity
  8
0
  6
CONTINUOUS
 62
     7
100
AcDbLine
 10
-1535.007553830408
 20
671.2035939659918
 30
0.0
 11
-1535.007553765941
 21
655.2035939649741
 31
0.0
  0
ARC
  5
5C1
330
2C6
100
AcDbEntity
  8
0
  6
CONTINUOUS
 62
     7
100
AcDbCircle
 10
-1533.007553765947
 20
697.2035939649741
 30
0.0
 40
2.0
100
AcDbArc
 50
90.00000000005863
 51
180.0
  0
ARC
  5
5C2
330
2C6
100
AcDbEntity
  8
0
  6
CONTINUOUS
 62
     7
100
AcDbCircle
 10
-522.0075537659468
 20
697.203593965145
 30
0.0
 40
2.0
100
AcDbArc
 50
0.00000000002606
 51
90.0
  0
ARC
  5
5C3
330
2C6
100
AcDbEntity
  8
0
  6
CONTINUOUS
 62
     7
100
AcDbCircle
 10
-522.0075537659395
 20
655.203593965145
 30
0.0
 40
2.0
100
AcDbArc
 50
270.0
 51
0.00000000002606
  0
ARC
  5
5C4
330
2C6
100
AcDbEntity
  8
0
  6
CONTINUOUS
 62
     7
100
AcDbCircle
 10
-1533.007553765941
 20
655.2035939649759
 30
0.0
 40
2.0
100
AcDbArc
 50
180.0000000000521
 51
270.0000000000326
  0
ENDBLK
  5
2C8
330
2C6
100
AcDbEntity
  8
0
100
AcDbBlockEnd
  0
BLOCK
  5
2CB
330
2C9
100
AcDbEntity
  8
0
100
AcDbBlockBegin
  2
PX001681_PANNELLO_1015_148
 70
     0
 10
-1535.00755383041
 20
653.2035939649713
 30
0.0
  3
PX001681_PANNELLO_1015_148
  1

  0
INSERT
  5
2CA
330
2C9
100
AcDbEntity
  8
0
100
AcDbBlockReference
  2
PX001595_PX001297_1187_147
 10
-1535.00755383041
 20
653.2035939649713
 30
0.0
  0
ENDBLK
  5
2CC
330
2C9
100
AcDbEntity
  8
0
100
AcDbBlockEnd
  0
BLOCK
  5
2CE
330
2CD
100
AcDbEntity
  8
0
100
AcDbBlockBegin
  2
PX000466_1__149
 70
     0
 10
-636.0075537659359
 20
651.2035939651187
 30
0.0
  3
PX000466_1__149
  1

  0
LINE
  5
5C5
330
2CD
100
AcDbEntity
  8
0
  6
CONTINUOUS
 62
     1
100
AcDbLine
 10
-634.0075537659359
 20
651.2035939651196
 30
0.0
 11
-634.0075537659377
 21
653.2035939651187
 31
0.0
  0
LINE
  5
5C6
330
2CD
100
AcDbEntity
  8
0
  6
CONTINUOUS
 62
     1
100
AcDbLine
 10
-602.0075537659359
 20
651.203593965125
 30
0.0
 11
-602.0075537659359
 21
653.2035939651241
 31
0.0
  0
LINE
  5
5C7
330
2CD
100
AcDbEntity
  8
0
  6
CONTINUOUS
 62
     7
100
AcDbLine
 10
-602.0075537659359
 20
653.2035939651241
 30
0.0
 11
-633.0075537659359
 21
653.2035939651187
 31
0.0
  0
LINE
  5
5C8
330
2CD
100
AcDbEntity
  8
0
  6
CONTINUOUS
 62
     7
100
AcDbLine
 10
-633.0075537659359
 20
653.2035939651187
 30
0.0
 11
-634.0075537659377
 21
653.2035939651187
 31
0.0
  0
LINE
  5
5C9
330
2CD
100
AcDbEntity
  8
0
  6
CONTINUOUS
 62
     7
100
AcDbLine
 10
-602.0075537659359
 20
651.203593965125
 30
0.0
 11
-634.0075537659359
 21
651.2035939651196
 31
0.0
  0
LINE
  5
5CA
330
2CD
100
AcDbEntity
  8
0
  6
CONTINUOUS
 62
     7
100
AcDbLine
 10
-634.0075537659377
 20
653.2035939651187
 30
0.0
 11
-636.0075537659359
 21
653.2035939651178
 31
0.0
  0
LINE
  5
5CB
330
2CD
100
AcDbEntity
  8
0
  6
CONTINUOUS
 62
     7
100
AcDbLine
 10
-636.0075537659359
 20
653.2035939651178
 30
0.0
 11
-636.0075537659359
 21
651.2035939651187
 31
0.0
  0
LINE
  5
5CC
330
2CD
100
AcDbEntity
  8
0
  6
CONTINUOUS
 62
     7
100
AcDbLine
 10
-634.0075537659359
 20
651.2035939651196
 30
0.0
 11
-636.0075537659359
 21
651.2035939651187
 31
0.0
  0
LINE
  5
5CD
330
2CD
100
AcDbEntity
  8
0
  6
CONTINUOUS
 62
     7
100
AcDbLine
 10
-600.0075537659359
 20
651.203593965126
 30
0.0
 11
-600.0075537659359
 21
653.203593965125
 31
0.0
  0
LINE
  5
5CE
330
2CD
100
AcDbEntity
  8
0
  6
CONTINUOUS
 62
     7
100
AcDbLine
 10
-602.0075537659359
 20
653.2035939651241
 30
0.0
 11
-600.0075537659359
 21
653.203593965125
 31
0.0
  0
LINE
  5
5CF
330
2CD
100
AcDbEntity
  8
0
  6
CONTINUOUS
 62
     7
100
AcDbLine
 10
-602.0075537659359
 20
651.203593965125
 30
0.0
 11
-600.0075537659359
 21
651.203593965126
 31
0.0
  0
ENDBLK
  5
2CF
330
2CD
100
AcDbEntity
  8
0
100
AcDbBlockEnd
  0
BLOCK
  5
2D1
330
2D0
100
AcDbEntity
  8
0
100
AcDbBlockBegin
  2
PX000467_1__150
 70
     0
 10
-633.5934743270245
 20
643.5017697374215
 30
0.0
  3
PX000467_1__150
  1

  0
LINE
  5
5D0
330
2D0
100
AcDbEntity
  8
0
  6
CONTINUOUS
 62
     7
100
AcDbLine
 10
-632.7482378035456
 20
643.5017697374215
 30
0.0
 11
-616.2316224466849
 21
651.2035939651232
 31
0.0
  0
LINE
  5
5D1
330
2D0
100
AcDbEntity
  8
0
  6
CONTINUOUS
 62
     7
100
AcDbLine
 10
-632.7482378035456
 20
643.5017697374215
 30
0.0
 11
-633.5934743270245
 21
645.3143853114934
 31
0.0
  0
LINE
  5
5D2
330
2D0
100
AcDbEntity
  8
0
  6
CONTINUOUS
 62
     7
100
AcDbLine
 10
-633.5934743270245
 20
645.3143853114934
 30
0.0
 11
-620.9640256129878
 21
651.2035939651232
 31
0.0
  0
ENDBLK
  5
2D2
330
2D0
100
AcDbEntity
  8
0
100
AcDbBlockEnd
  0
BLOCK
  5
2D6
330
2D3
100
AcDbEntity
  8
0
100
AcDbBlockBegin
  2
CM06100A01100_MANIGLIA_151
 70
     0
 10
-636.0075537659359
 20
643.5017697374215
 30
0.0
  3
CM06100A01100_MANIGLIA_151
  1

  0
INSERT
  5
2D4
330
2D3
100
AcDbEntity
  8
0
100
AcDbBlockReference
  2
PX000466_1__149
 10
-636.0075537659359
 20
651.2035939651187
 30
0.0
  0
INSERT
  5
2D5
330
2D3
100
AcDbEntity
  8
0
100
AcDbBlockReference
  2
PX000467_1__150
 10
-633.5934743270245
 20
643.5017697374215
 30
0.0
  0
ENDBLK
  5
2D7
330
2D3
100
AcDbEntity
  8
0
100
AcDbBlockEnd
  0
BLOCK
  5
2DC
330
2D8
100
AcDbEntity
  8
0
100
AcDbBlockBegin
  2
PANNELLO__152
 70
     0
 10
-1535.00755383041
 20
643.5017697374215
 30
0.0
  3
PANNELLO__152
  1

  0
INSERT
  5
2D9
330
2D8
100
AcDbEntity
  8
0
100
AcDbBlockReference
  2
CM06100A01100_MANIGLIA_146
 10
-636.007553765945
 20
699.2035939651178
 30
0.0
  0
INSERT
  5
2DA
330
2D8
100
AcDbEntity
  8
0
100
AcDbBlockReference
  2
PX001681_PANNELLO_1015_148
 10
-1535.00755383041
 20
653.2035939649713
 30
0.0
  0
INSERT
  5
2DB
330
2D8
100
AcDbEntity
  8
0
100
AcDbBlockReference
  2
CM06100A01100_MANIGLIA_151
 10
-636.0075537659359
 20
643.5017697374215
 30
0.0
  0
ENDBLK
  5
2DD
330
2D8
100
AcDbEntity
  8
0
100
AcDbBlockEnd
  0
BLOCK
  5
2E1
330
2DE
100
AcDbEntity
  8
0
100
AcDbBlockBegin
  2
PX001593_GRUPPO_ANTA_L_153
 70
     0
 10
-1535.00755383041
 20
643.5017697374215
 30
0.0
  3
PX001593_GRUPPO_ANTA_L_153
  1

  0
INSERT
  5
2DF
330
2DE
100
AcDbEntity
  8
0
100
AcDbBlockReference
  2
FRESATE_CERNIERE_TELAI_143
 10
-1535.00755383041
 20
653.2035939649713
 30
0.0
  0
INSERT
  5
2E0
330
2DE
100
AcDbEntity
  8
0
100
AcDbBlockReference
  2
PANNELLO__152
 10
-1535.00755383041
 20
643.5017697374215
 30
0.0
  0
ENDBLK
  5
2E2
330
2DE
100
AcDbEntity
  8
0
100
AcDbBlockEnd
  0
BLOCK
  5
2E7
330
2E3
100
AcDbEntity
  8
0
100
AcDbBlockBegin
  2
TKKZ0TEC43200_TECNICO__154
 70
     0
 10
-1574.507553791911
 20
643.5017697374215
 30
0.0
  3
TKKZ0TEC43200_TECNICO__154
  1

  0
INSERT
  5
2E4
330
2E3
100
AcDbEntity
  8
0
100
AcDbBlockReference
  2
PX004198_STIPITE_MONTA_134
 10
-1574.507553791911
 20
653.2035939654497
 30
0.0
  0
INSERT
  5
2E5
330
2E3
100
AcDbEntity
  8
0
100
AcDbBlockReference
  2
PX001692_TELAIO_BATTEN_140
 10
-1573.507553830032
 20
653.2035939654497
 30
0.0
  0
INSERT
  5
2E6
330
2E3
100
AcDbEntity
  8
0
100
AcDbBlockReference
  2
PX001593_GRUPPO_ANTA_L_153
 10
-1535.00755383041
 20
643.5017697374215
 30
0.0
  0
ENDBLK
  5
2E8
330
2E3
100
AcDbEntity
  8
0
100
AcDbBlockEnd
  0
BLOCK
  5
2EB
330
2E9
100
AcDbEntity
  8
0
100
AcDbBlockBegin
  2
GEN11
 70
     0
 10
-1027.507499999996
 20
672.4379000000008
 30
0.0
  3
GEN11
  1

  0
INSERT
  5
2EA
330
2E9
100
AcDbEntity
  8
0
100
AcDbBlockReference
  2
TKKZ0TEC43200_TECNICO__154
 10
-1574.507553791911
 20
643.5017697374215
 30
0.0
  0
MTEXT
  5
5D3
330
2E9
100
AcDbEntity
  8
1
 62
     3
100
AcDbMText
 10
-1030.007554071932
 20
593.2896526711766
 30
0.0
 40
5.0
 41
0.0
 71
     5
 72
     1
  1
APERTURA 0%%d
  7
CONVERTER_11
1001
ACAD
1000
MTEXTBEGIN
1070
    44
1040
0.96038415366146
1000
MTEXTEND
  0
DIMENSION
  5
5DE
330
2E9
100
AcDbEntity
  8
1
100
AcDbDimension
  2
*D167
 10
-1335.436118930999
 20
653.203593965145
 30
0.0
 11
-1339.186118930999
 21
676.203593965145
 31
0.0
 70
    32
  1
SP
 53
90.0
  3
ME10_DIM_15
100
AcDbAlignedDimension
 13
-522.0075537659468
 23
699.203593965145
 33
0.0
 14
-522.0075537659395
 24
653.203593965145
 34
0.0
 50
90.0
100
AcDbRotatedDimension
  0
DIMENSION
  5
5EB
330
2E9
100
AcDbEntity
  8
1
100
AcDbDimension
  2
*D168
 10
-1538.507553785186
 20
635.9500112793553
 30
0.0
 11
-1554.837965146711
 21
640.5750112793553
 31
0.0
 70
    32
  1
<>
 53
0.00013888888889
  3
ME10_DIM_16
100
AcDbAlignedDimension
 13
-1535.007553765941
 23
655.2035939649741
 33
0.0
 14
-1538.507553785184
 24
655.2035939654434
 34
0.0
100
AcDbRotatedDimension
  0
ENDBLK
  5
2EC
330
2E9
100
AcDbEntity
  8
0
100
AcDbBlockEnd
  0
BLOCK
  5
2EE
330
2ED
100
AcDbEntity
  8
0
100
AcDbBlockBegin
  2
_TECNICI__155
 70
     0
 10
1327.629104667345
 20
-837.3746891736482
 30
0.0
  3
_TECNICI__155
  1

  0
POINT
  5
5EC
330
2ED
100
AcDbEntity
  8
1
 62
     7
100
AcDbPoint
 10
2542.995504495552
 20
-1674.07126889456
 30
0.0
  0
LINE
  5
5ED
330
2ED
100
AcDbEntity
  8
1
  6
CONTINUOUS
 62
     7
100
AcDbLine
 10
2655.25820933469
 20
-1602.89916889456
 30
0.0
 11
2577.484378258336
 21
-1602.89916889456
 31
0.0
  0
LINE
  5
5EE
330
2ED
100
AcDbEntity
  8
1
  6
CONTINUOUS
 62
     7
100
AcDbLine
 10
2655.25820933469
 20
-1649.69066889456
 30
0.0
 11
2535.29930933469
 21
-1649.69066889456
 31
0.0
  0
LINE
  5
5EF
330
2ED
100
AcDbEntity
  8
1
  6
CONTINUOUS
 62
     7
100
AcDbLine
 10
2655.25820933469
 20
-1597.69066889456
 30
0.0
 11
2655.25820933469
 21
-1674.69066889456
 31
0.0
  0
LINE
  5
5F0
330
2ED
100
AcDbEntity
  8
1
  6
CONTINUOUS
 62
     7
100
AcDbLine
 10
2626.848807274681
 20
-1613.53176889456
 30
0.0
 11
2626.848807274681
 21
-1649.69066889456
 31
0.0
  0
LINE
  5
5F1
330
2ED
100
AcDbEntity
  8
1
  6
CONTINUOUS
 62
     7
100
AcDbLine
 10
2655.25820933469
 20
-1613.53176889456
 30
0.0
 11
2577.484378258336
 21
-1613.53176889456
 31
0.0
  0
LINE
  5
5F2
330
2ED
100
AcDbEntity
  8
1
  6
CONTINUOUS
 62
     7
100
AcDbLine
 10
2626.848807274681
 20
-1619.508197533014
 30
0.0
 11
2655.25820933469
 21
-1619.508197533014
 31
0.0
  0
LINE
  5
5F3
330
2ED
100
AcDbEntity
  8
1
  6
CONTINUOUS
 62
     7
100
AcDbLine
 10
2642.954235535661
 20
-1635.10226889456
 30
0.0
 11
2642.954235535661
 21
-1613.508197533014
 31
0.0
  0
LINE
  5
5F4
330
2ED
100
AcDbEntity
  8
1
  6
DOT_CENTER
 62
     6
100
AcDbLine
 10
2654.865580759051
 20
-1642.497441135184
 30
0.0
 11
2627.54636265588
 21
-1642.497441135184
 31
0.0
  0
LINE
  5
5F5
330
2ED
100
AcDbEntity
  8
1
  6
CONTINUOUS
 62
     7
100
AcDbLine
 10
2628.327704893854
 20
-1645.497441135184
 30
0.0
 11
2640.327704893854
 21
-1647.497441135184
 31
0.0
  0
LINE
  5
5F6
330
2ED
100
AcDbEntity
  8
1
  6
CONTINUOUS
 62
     7
100
AcDbLine
 10
2628.327704893854
 20
-1639.497441135184
 30
0.0
 11
2628.327704893854
 21
-1645.497441135184
 31
0.0
  0
LINE
  5
5F7
330
2ED
100
AcDbEntity
  8
1
  6
CONTINUOUS
 62
     7
100
AcDbLine
 10
2640.327704893854
 20
-1637.497441135184
 30
0.0
 11
2628.327704893854
 21
-1639.497441135184
 31
0.0
  0
LINE
  5
5F8
330
2ED
100
AcDbEntity
  8
1
  6
CONTINUOUS
 62
     7
100
AcDbLine
 10
2640.327704893854
 20
-1637.497441135184
 30
0.0
 11
2640.327704893854
 21
-1647.497441135184
 31
0.0
  0
LINE
  5
5F9
330
2ED
100
AcDbEntity
  8
1
  6
DOT_CENTER
 62
     6
100
AcDbLine
 10
2648.327704893854
 20
-1649.134819778567
 30
0.0
 11
2648.327704893854
 21
-1636.079896058012
 31
0.0
  0
LINE
  5
5FA
330
2ED
100
AcDbEntity
  8
1
  6
CONTINUOUS
 62
     7
100
AcDbLine
 10
2535.29930933469
 20
-1597.69066889456
 30
0.0
 11
2535.29930933469
 21
-1674.69066889456
 31
0.0
  0
LINE
  5
5FB
330
2ED
100
AcDbEntity
  8
1
  6
CONTINUOUS
 62
     7
100
AcDbLine
 10
2577.484378258336
 20
-1597.69066889456
 30
0.0
 11
2577.484378258336
 21
-1649.69066889456
 31
0.0
  0
LINE
  5
5FC
330
2ED
100
AcDbEntity
  8
1
  6
CONTINUOUS
 62
     7
100
AcDbLine
 10
2655.25820933469
 20
-1635.10226889456
 30
0.0
 11
2577.484378258336
 21
-1635.10226889456
 31
0.0
  0
LINE
  5
5FD
330
2ED
100
AcDbEntity
  8
1
  6
CONTINUOUS
 62
     7
100
AcDbLine
 10
2535.29930933469
 20
-1674.69066889456
 30
0.0
 11
2655.25820933469
 21
-1674.69066889456
 31
0.0
  0
LINE
  5
5FE
330
2ED
100
AcDbEntity
  8
1
  6
CONTINUOUS
 62
     7
100
AcDbLine
 10
2535.29930933469
 20
-1669.69066889456
 30
0.0
 11
2655.25820933469
 21
-1669.69066889456
 31
0.0
  0
LINE
  5
5FF
330
2ED
100
AcDbEntity
  8
1
  6
CONTINUOUS
 62
     7
100
AcDbLine
 10
2535.29930933469
 20
-1664.69066889456
 30
0.0
 11
2655.25820933469
 21
-1664.69066889456
 31
0.0
  0
LINE
  5
600
330
2ED
100
AcDbEntity
  8
1
  6
CONTINUOUS
 62
     7
100
AcDbLine
 10
2535.29930933469
 20
-1659.69066889456
 30
0.0
 11
2655.25820933469
 21
-1659.69066889456
 31
0.0
  0
LINE
  5
601
330
2ED
100
AcDbEntity
  8
1
  6
CONTINUOUS
 62
     7
100
AcDbLine
 10
2535.29930933469
 20
-1654.69066889456
 30
0.0
 11
2655.25820933469
 21
-1654.69066889456
 31
0.0
  0
LINE
  5
602
330
2ED
100
AcDbEntity
  8
1
  6
CONTINUOUS
 62
     7
100
AcDbLine
 10
2655.25820933469
 20
-1597.69066889456
 30
0.0
 11
2535.29930933469
 21
-1597.69066889456
 31
0.0
  0
CIRCLE
  5
603
330
2ED
100
AcDbEntity
  8
1
  6
CONTINUOUS
 62
     7
100
AcDbCircle
 10
2648.327704893854
 20
-1642.497441135184
 30
0.0
 40
5.0
  0
CIRCLE
  5
604
330
2ED
100
AcDbEntity
  8
1
  6
CONTINUOUS
 62
     7
100
AcDbCircle
 10
2648.327704893854
 20
-1642.497441135184
 30
0.0
 40
3.0
  0
CIRCLE
  5
605
330
2ED
100
AcDbEntity
  8
1
  6
CONTINUOUS
 62
     7
100
AcDbCircle
 10
2575.180787106845
 20
-1601.856546370563
 30
0.0
 40
1.5
  0
MTEXT
  5
607
330
2ED
100
AcDbEntity
  8
1
 62
     3
100
AcDbMText
 10
2628.25074348238
 20
-1618.157215203955
 30
0.0
 40
4.0
 41
0.0
 71
     7
 72
     1
  1
REV N%%d
  7
CONVERTER_12
1001
ACAD
1000
MTEXTBEGIN
1070
    44
1040
0.60024009603842
1000
MTEXTEND
  0
TEXT
  5
608
330
2ED
100
AcDbEntity
  8
1
 62
     3
100
AcDbText
 10
2647.169650330162
 20
-1618.157215203955
 30
0.0
 40
4.0
  1
02
 41
1.188
  7
CONVERTER_12
100
AcDbText
  0
MTEXT
  5
609
330
2ED
100
AcDbEntity
  8
1
 62
     3
100
AcDbMText
 10
2649.106222435175
 20
-1628.453956605952
 30
0.0
 40
4.0
 41
0.0
 71
     8
 72
     1
  1
1:5
  7
CONVERTER_12
1001
ACAD
1000
MTEXTBEGIN
1070
    44
1040
0.60024009603842
1000
MTEXTEND
  0
MTEXT
  5
60A
330
2ED
100
AcDbEntity
  8
1
 62
     3
100
AcDbMText
 10
2579.877367428479
 20
-1646.51426889456
 30
0.0
 40
2.8
 41
0.0
 71
     7
 72
     1
  1
QUOTE SENZA INDICAZIONE\PDI TOLLERANZA:\PGRADO DI PRECISIONE ISO 2768-mK
  7
CONVERTER_12
1001
ACAD
1000
MTEXTBEGIN
1070
    44
1040
0.60024009603842
1000
MTEXTEND
  0
TEXT
  5
60B
330
2ED
100
AcDbEntity
  8
1
 62
     3
100
AcDbText
 10
2628.755249974904
 20
-1628.453956605952
 30
0.0
 40
4.0
  1
SCALA
 41
1.188
  7
CONVERTER_12
100
AcDbText
  0
TEXT
  5
60C
330
2ED
100
AcDbEntity
  8
1
 62
     3
100
AcDbText
 10
2543.393102028543
 20
-1653.457535415009
 30
0.0
 40
2.9
  1
ITALY-47853 Coriano (RN)-Tel.+39 0541 657040-Fax+39 0541 658211
 41
1.188
  7
CONVERTER_12
100
AcDbText
  0
TEXT
  5
60D
330
2ED
100
AcDbEntity
  8
1
 62
     3
100
AcDbText
 10
2608.507893796513
 20
-1601.748430150155
 30
0.0
 40
4.0
  1
CODICE
 41
1.188
  7
CONVERTER_12
100
AcDbText
  0
TEXT
  5
60E
330
2ED
100
AcDbEntity
  8
1
 62
     3
100
AcDbText
 10
2577.484378258336
 20
-1612.954177589723
 30
0.0
 40
9.5
  1
TKKZ0TEC43200
 41
1.188
  7
CONVERTER_12
100
AcDbText
  0
MTEXT
  5
60F
330
2ED
100
AcDbEntity
  8
1
 62
     3
100
AcDbMText
 10
2578.973478258336
 20
-1632.530555017157
 30
0.0
 40
2.8
 41
0.0
 71
     7
 72
     1
  1
IL PRESENTE DISEGNO E' DI\PPROPRIETA' DELLA DITTA\PKRONA-KOBLENZ s.p.a. CHE NE\PPUO' RIVENDICARE I DIRITTI NEL\PCASO ESSO VENGA RIPRODOTTO\PO DIVULGATO A TERZI
  7
CONVERTER_12
1001
ACAD
1000
MTEXTBEGIN
1070
    44
1040
0.60024009603842
1000
MTEXTEND
  0
MTEXT
  5
611
330
2ED
100
AcDbEntity
  8
1
 62
     7
100
AcDbMText
 10
2575.266785302227
 20
-1601.801179514637
 30
0.0
 40
2.1
 41
0.0
 71
     5
 72
     1
  1
R
  7
CONVERTER_13
1001
ACAD
1000
MTEXTBEGIN
1070
    44
1040
0.96038415366146
1000
MTEXTEND
  0
MTEXT
  5
612
330
2ED
100
AcDbEntity
  8
1
 62
     3
100
AcDbMText
 10
2543.24715600345
 20
-1668.93856889456
 30
0.0
 40
2.9
 41
0.0
 71
     7
 72
     1
  1
\U+0420\U+041E\U+0421\U+0421\U+0418\U+042F - 109052, \U+0433. \U+041C\U+043E\U+0441\U+043A\U+0432\U+0430 - \U+0422\U+0435\U+043B/\U+0444\U+0430\U+043A\U+0441 +7 (495) 287-16-08
  7
CONVERTER_12
1001
ACAD
1000
MTEXTBEGIN
1070
    44
1040
0.60024009603842
1000
MTEXTEND
  0
TEXT
  5
613
330
2ED
100
AcDbEntity
  8
1
 62
     3
100
AcDbText
 10
2543.24715600345
 20
-1664.034789038163
 30
0.0
 40
2.9
  1
FRANCE-69830 Saint Georges De Reneins-Tel:+33-474090939-Fax:+33-474090932
 41
1.188
  7
CONVERTER_12
100
AcDbText
  0
TEXT
  5
614
330
2ED
100
AcDbEntity
  8
1
 62
     3
100
AcDbText
 10
2543.48840933469
 20
-1674.07126889456
 30
0.0
 40
2.9
  1
Koblenz Utturhar Fittings Private Limited-411030 Maharashtra,India,Ph:+91 020-24471422
 41
1.188
  7
CONVERTER_12
100
AcDbText
  0
MTEXT
  5
615
330
2ED
100
AcDbEntity
  8
1
 62
     3
100
AcDbMText
 10
2543.24715600345
 20
-1658.712527192091
 30
0.0
 40
2.9
 41
0.0
 71
     7
 72
     1
  1
ESPAÑA-C.P 08291 Ripollet-(Barcelona)-Tel:+34 935910410-Fax:+34 935910498
  7
CONVERTER_12
1001
ACAD
1000
MTEXTBEGIN
1070
    44
1040
0.60024009603842
1000
MTEXTEND
  0
ENDBLK
  5
2EF
330
2ED
100
AcDbEntity
  8
0
100
AcDbBlockEnd
  0
BLOCK
  5
3BE
330
3B9
100
AcDbEntity
  8
0
100
AcDbBlockBegin
  2
*D161
 70
     1
 10
0.0
 20
0.0
 30
0.0
  3
*D161
  1

  0
ARC
  5
3BA
330
3B9
100
AcDbEntity
  8
1
  6
CONTINUOUS
 62
     1
100
AcDbCircle
 10
-770.1899944147444
 20
-651.630279038683
 30
0.0
 40
959.6992534011763
100
AcDbArc
 50
225.0
 51
0.0
  0
SOLID
  5
3BB
330
3B9
100
AcDbEntity
  8
1
 62
     1
100
AcDbTrace
 10
-1445.995233242895
 20
-1332.384068836841
 30
0.0
 11
-1446.645690507049
 21
-1333.036902639151
 31
0.0
 12
-1448.799844394383
 22
-1330.240129018322
 32
0.0
 13
-1448.799844394383
 23
-1330.240129018322
 33
0.0
  0
SOLID
  5
3BC
330
3B9
100
AcDbEntity
  8
1
 62
     1
100
AcDbTrace
 10
189.9636597577101
 20
-655.1311134528684
 30
0.0
 11
189.0420938067537
 21
-655.1294329866223
 31
0.0
 12
189.5092589864318
 22
-651.630279038683
 32
0.0
 13
189.5092589864318
 23
-651.630279038683
 33
0.0
  0
MTEXT
  5
3BD
330
3B9
100
AcDbEntity
  8
1
 62
     3
100
AcDbMText
 10
-445.8856977456915
 20
-1552.762119074957
 30
0.0
 40
3.5
 41
0.0
 71
     7
 72
     1
  1
135{\Fgdt;~}
  7
CONVERTER_11
 11
0.9391768985695756
 21
0.3434337682774264
 31
0.0
1001
ACAD
1000
MTEXTBEGIN
1070
    44
1040
0.60024009603842
1000
MTEXTEND
  0
ENDBLK
  5
3BF
330
3B9
100
AcDbEntity
  8
0
100
AcDbBlockEnd
  0
BLOCK
  5
454
330
44B
100
AcDbEntity
  8
0
100
AcDbBlockBegin
  2
*D162
 70
     1
 10
0.0
 20
0.0
 30
0.0
  3
*D162
  1

  0
LINE
  5
44C
330
44B
100
AcDbEntity
  8
1
  6
CONTINUOUS
 62
     1
100
AcDbLine
 10
1491.164398452686
 20
-581.8220470344477
 30
0.0
 11
1491.164398452686
 21
-563.99832588378
 31
0.0
  0
LINE
  5
44D
330
44B
100
AcDbEntity
  8
1
  6
CONTINUOUS
 62
     1
100
AcDbLine
 10
1491.164398452686
 20
-591.2838215165025
 30
0.0
 11
1491.164398452686
 21
-581.8220470344477
 31
0.0
  0
LINE
  5
44E
330
44B
100
AcDbEntity
  8
1
  6
CONTINUOUS
 62
     1
100
AcDbLine
 10
1491.164398452686
 20
-598.2838215165025
 30
0.0
 11
1491.164398452686
 21
-591.2838215165025
 31
0.0
  0
LINE
  5
44F
330
44B
100
AcDbEntity
  8
1
  6
CONTINUOUS
 62
     1
100
AcDbLine
 10
1505.743779208084
 20
-581.8220470344477
 30
0.0
 11
1490.164398452686
 21
-581.8220470344477
 31
0.0
  0
LINE
  5
450
330
44B
100
AcDbEntity
  8
1
  6
CONTINUOUS
 62
     1
100
AcDbLine
 10
1504.408681481833
 20
-591.2838215165025
 30
0.0
 11
1490.164398452686
 21
-591.2838215165025
 31
0.0
  0
SOLID
  5
451
330
44B
100
AcDbEntity
  8
1
 62
     1
100
AcDbTrace
 10
1491.625182194242
 20
-594.7838215165025
 30
0.0
 11
1490.70361471113
 21
-594.7838215165025
 31
0.0
 12
1491.164398452686
 22
-591.2838215165025
 32
0.0
 13
1491.164398452686
 23
-591.2838215165025
 33
0.0
  0
SOLID
  5
452
330
44B
100
AcDbEntity
  8
1
 62
     1
100
AcDbTrace
 10
1490.70361471113
 20
-578.3220470344477
 30
0.0
 11
1491.625182194242
 21
-578.3220470344477
 31
0.0
 12
1491.164398452686
 22
-581.8220470344477
 32
0.0
 13
1491.164398452686
 23
-581.8220470344477
 33
0.0
  0
MTEXT
  5
453
330
44B
100
AcDbEntity
  8
1
 62
     3
100
AcDbMText
 10
1489.164398452686
 20
-574.23582588378
 30
0.0
 40
3.5
 41
0.0
 71
     7
 72
     1
  1
\C3;9.5\C3;\H2.1;{\Fgdt;`}1
  7
CONVERTER_11
 11
0.0
 21
1.0
 31
0.0
1001
ACAD
1000
MTEXTBEGIN
1070
    44
1040
0.60024009603842
1000
MTEXTEND
  0
ENDBLK
  5
455
330
44B
100
AcDbEntity
  8
0
100
AcDbBlockEnd
  0
BLOCK
  5
460
330
458
100
AcDbEntity
  8
0
100
AcDbBlockBegin
  2
*D163
 70
     1
 10
0.0
 20
0.0
 30
0.0
  3
*D163
  1

  0
LINE
  5
459
330
458
100
AcDbEntity
  8
1
  6
CONTINUOUS
 62
     1
100
AcDbLine
 10
1556.599332359864
 20
-624.46911269511
 30
0.0
 11
1543.908681481831
 21
-624.46911269511
 31
0.0
  0
LINE
  5
45A
330
458
100
AcDbEntity
  8
1
  6
CONTINUOUS
 62
     1
100
AcDbLine
 10
1573.96331972063
 20
-624.46911269511
 30
0.0
 11
1556.599332359864
 21
-624.46911269511
 31
0.0
  0
LINE
  5
45B
330
458
100
AcDbEntity
  8
1
  6
CONTINUOUS
 62
     1
100
AcDbLine
 10
1543.908681481831
 20
-633.7838215165016
 30
0.0
 11
1543.908681481831
 21
-623.46911269511
 31
0.0
  0
LINE
  5
45C
330
458
100
AcDbEntity
  8
1
  6
CONTINUOUS
 62
     1
100
AcDbLine
 10
1556.599332359864
 20
-586.973453801957
 30
0.0
 11
1556.599332359864
 21
-625.46911269511
 31
0.0
  0
SOLID
  5
45D
330
458
100
AcDbEntity
  8
1
 62
     1
100
AcDbTrace
 10
1553.099332359864
 20
-624.9298964366659
 30
0.0
 11
1553.099332359864
 21
-624.008328953554
 31
0.0
 12
1556.599332359864
 22
-624.46911269511
 32
0.0
 13
1556.599332359864
 23
-624.46911269511
 33
0.0
  0
SOLID
  5
45E
330
458
100
AcDbEntity
  8
1
 62
     1
100
AcDbTrace
 10
1547.408681481831
 20
-624.008328953554
 30
0.0
 11
1547.408681481831
 21
-624.9298964366659
 31
0.0
 12
1543.908681481831
 22
-624.46911269511
 32
0.0
 13
1543.908681481831
 23
-624.46911269511
 33
0.0
  0
MTEXT
  5
45F
330
458
100
AcDbEntity
  8
1
 62
     3
100
AcDbMText
 10
1560.78581972063
 20
-621.59411269511
 30
0.0
 40
3.5
 41
0.0
 71
     7
 72
     1
  1
\C3;12.7\C3;\H2.1;\S+3^ -2;
  7
CONVERTER_11
 11
0.9999999999970619
 21
2.424068405545306E-6
 31
0.0
1001
ACAD
1000
MTEXTBEGIN
1070
    44
1040
0.60024009603842
1000
MTEXTEND
  0
ENDBLK
  5
461
330
458
100
AcDbEntity
  8
0
100
AcDbBlockEnd
  0
BLOCK
  5
4F4
330
4EB
100
AcDbEntity
  8
0
100
AcDbBlockBegin
  2
*D164
 70
     1
 10
0.0
 20
0.0
 30
0.0
  3
*D164
  1

  0
LINE
  5
4EC
330
4EB
100
AcDbEntity
  8
1
  6
CONTINUOUS
 62
     1
100
AcDbLine
 10
1545.802573541642
 20
635.6340111642553
 30
0.0
 11
1552.802573541642
 21
635.6340111642553
 31
0.0
  0
LINE
  5
4ED
330
4EB
100
AcDbEntity
  8
1
  6
CONTINUOUS
 62
     1
100
AcDbLine
 10
1543.243779214813
 20
635.6340111642553
 30
0.0
 11
1545.802573541642
 21
635.6340111642553
 31
0.0
  0
LINE
  5
4EE
330
4EB
100
AcDbEntity
  8
1
  6
CONTINUOUS
 62
     1
100
AcDbLine
 10
1528.882997515738
 20
635.6340111642553
 30
0.0
 11
1543.243779214813
 21
635.6340111642553
 31
0.0
  0
LINE
  5
4EF
330
4EB
100
AcDbEntity
  8
1
  6
CONTINUOUS
 62
     1
100
AcDbLine
 10
1545.802573541642
 20
647.2839287572756
 30
0.0
 11
1545.802573541642
 21
634.6340111642553
 31
0.0
  0
LINE
  5
4F0
330
4EB
100
AcDbEntity
  8
1
  6
CONTINUOUS
 62
     1
100
AcDbLine
 10
1543.243779214813
 20
652.9866869654466
 30
0.0
 11
1543.243779214813
 21
634.6340111642553
 31
0.0
  0
SOLID
  5
4F1
330
4EB
100
AcDbEntity
  8
1
 62
     1
100
AcDbTrace
 10
1539.743779214813
 20
635.1732274226994
 30
0.0
 11
1539.743779214813
 21
636.0947949058112
 31
0.0
 12
1543.243779214813
 22
635.6340111642553
 32
0.0
 13
1543.243779214813
 23
635.6340111642553
 33
0.0
  0
SOLID
  5
4F2
330
4EB
100
AcDbEntity
  8
1
 62
     1
100
AcDbTrace
 10
1549.302573541642
 20
636.0947949058112
 30
0.0
 11
1549.302573541642
 21
635.1732274226994
 31
0.0
 12
1545.802573541642
 22
635.6340111642553
 32
0.0
 13
1545.802573541642
 23
635.6340111642553
 33
0.0
  0
MTEXT
  5
4F3
330
4EB
100
AcDbEntity
  8
1
 62
     3
100
AcDbMText
 10
1528.882997515738
 20
637.6340111642553
 30
0.0
 40
3.5
 41
0.0
 71
     7
 72
     1
  1
2.6
  7
CONVERTER_11
 11
0.9999999999970619
 21
2.424068405545306E-6
 31
0.0
1001
ACAD
1000
MTEXTBEGIN
1070
    44
1040
0.60024009603842
1000
MTEXTEND
  0
ENDBLK
  5
4F5
330
4EB
100
AcDbEntity
  8
0
100
AcDbBlockEnd
  0
BLOCK
  5
4FD
330
4F8
100
AcDbEntity
  8
0
100
AcDbBlockBegin
  2
*D165
 70
     1
 10
0.0
 20
0.0
 30
0.0
  3
*D165
  1

  0
ARC
  5
4F9
330
4F8
100
AcDbEntity
  8
1
  6
CONTINUOUS
 62
     1
100
AcDbCircle
 10
1591.802573541803
 20
652.4866869626079
 30
0.0
 40
984.047667860084
100
AcDbArc
 50
270.0
 51
0.00000000016711
  0
SOLID
  5
4FA
330
4F8
100
AcDbEntity
  8
1
 62
     1
100
AcDbTrace
 10
1595.301748564108
 20
-331.0939735958645
 30
0.0
 11
1595.303387450412
 21
-332.0155396217035
 31
0.0
 12
1591.802573541803
 22
-331.560980897476
 32
0.0
 13
1591.802573541803
 23
-331.560980897476
 33
0.0
  0
SOLID
  5
4FB
330
4F8
100
AcDbEntity
  8
1
 62
     1
100
AcDbTrace
 10
2576.304800126125
 20
648.9858730568703
 30
0.0
 11
2575.383234100286
 21
648.9875119431715
 31
0.0
 12
2575.850241401887
 22
652.486686965478
 32
0.0
 13
2575.850241401887
 23
652.486686965478
 33
0.0
  0
MTEXT
  5
4FC
330
4F8
100
AcDbEntity
  8
1
 62
     3
100
AcDbMText
 10
2321.293964274771
 20
-4.98936225584781
 30
0.0
 40
3.5
 41
0.0
 71
     7
 72
     1
  1
90{\Fgdt;~}
  7
CONVERTER_11
 11
0.666572638295593
 21
0.7454400833572424
 31
0.0
1001
ACAD
1000
MTEXTBEGIN
1070
    44
1040
0.60024009603842
1000
MTEXTEND
  0
ENDBLK
  5
4FE
330
4F8
100
AcDbEntity
  8
0
100
AcDbBlockEnd
  0
BLOCK
  5
583
330
57C
100
AcDbEntity
  8
0
100
AcDbBlockBegin
  2
*D166
 70
     1
 10
0.0
 20
0.0
 30
0.0
  3
*D166
  1

  0
LINE
  5
57D
330
57C
100
AcDbEntity
  8
1
  6
CONTINUOUS
 62
     1
100
AcDbLine
 10
750.347964109058
 20
23.05401019945691
 30
0.0
 11
802.4785373032441
 21
-29.0765629947125
 31
0.0
  0
LINE
  5
57E
330
57C
100
AcDbEntity
  8
1
  6
CONTINUOUS
 62
     1
100
AcDbLine
 10
802.4785373032441
 20
-29.0765629947125
 30
0.0
 11
803.1856440844308
 21
-29.78366977589889
 31
0.0
  0
ARC
  5
57F
330
57C
100
AcDbEntity
  8
1
  6
CONTINUOUS
 62
     1
100
AcDbCircle
 10
120.1983803456487
 20
653.2035939626636
 30
0.0
 40
964.8898513073203
100
AcDbArc
 50
315.0000000000092
 51
0.00000000016711
  0
SOLID
  5
580
330
57C
100
AcDbEntity
  8
1
 62
     1
100
AcDbTrace
 10
804.6225046332183
 20
-26.27197287412702
 30
0.0
 11
805.2753320549001
 21
-26.92243654215872
 31
0.0
 12
802.4785373032441
 22
-29.0765629947125
 32
0.0
 13
802.4785373032441
 23
-29.0765629947125
 33
0.0
  0
SOLID
  5
581
330
57C
100
AcDbEntity
  8
1
 62
     1
100
AcDbTrace
 10
1085.542666765328
 20
649.7027640088622
 30
0.0
 11
1084.621100797932
 21
649.7044354350945
 31
0.0
 12
1085.088231652969
 22
653.2035939654778
 32
0.0
 13
1085.088231652969
 23
653.2035939654778
 33
0.0
  0
MTEXT
  5
582
330
57C
100
AcDbEntity
  8
1
 62
     3
100
AcDbMText
 10
1022.398257532852
 20
316.7410108214928
 30
0.0
 40
3.5
 41
0.0
 71
     7
 72
     1
  1
45{\Fgdt;~}
  7
CONVERTER_11
 11
0.3456780887354594
 21
0.9383531632430296
 31
0.0
1001
ACAD
1000
MTEXTBEGIN
1070
    44
1040
0.60024009603842
1000
MTEXTEND
  0
ENDBLK
  5
584
330
57C
100
AcDbEntity
  8
0
100
AcDbBlockEnd
  0
BLOCK
  5
5DB
330
5D4
100
AcDbEntity
  8
0
100
AcDbBlockBegin
  2
*D167
 70
     1
 10
0.0
 20
0.0
 30
0.0
  3
*D167
  1

  0
LINE
  5
5D5
330
5D4
100
AcDbEntity
  8
1
  6
CONTINUOUS
 62
     1
100
AcDbLine
 10
-1335.436118930999
 20
653.203593965145
 30
0.0
 11
-1335.436118930999
 21
699.203593965145
 31
0.0
  0
LINE
  5
5D6
330
5D4
100
AcDbEntity
  8
1
  6
CONTINUOUS
 62
     1
100
AcDbLine
 10
-523.5075537659475
 20
699.203593965145
 30
0.0
 11
-1336.436118930999
 21
699.203593965145
 31
0.0
  0
LINE
  5
5D7
330
5D4
100
AcDbEntity
  8
1
  6
CONTINUOUS
 62
     1
100
AcDbLine
 10
-523.50755376594
 20
653.203593965145
 30
0.0
 11
-1336.436118930999
 21
653.203593965145
 31
0.0
  0
SOLID
  5
5D8
330
5D4
100
AcDbEntity
  8
1
 62
     1
100
AcDbTrace
 10
-1335.896902672555
 20
656.703593965145
 30
0.0
 11
-1334.975335189443
 21
656.703593965145
 31
0.0
 12
-1335.436118930999
 22
653.203593965145
 32
0.0
 13
-1335.436118930999
 23
653.203593965145
 33
0.0
  0
SOLID
  5
5D9
330
5D4
100
AcDbEntity
  8
1
 62
     1
100
AcDbTrace
 10
-1334.975335189443
 20
695.703593965145
 30
0.0
 11
-1335.896902672555
 21
695.703593965145
 31
0.0
 12
-1335.436118930999
 22
699.203593965145
 32
0.0
 13
-1335.436118930999
 23
699.203593965145
 33
0.0
  0
MTEXT
  5
5DA
330
5D4
100
AcDbEntity
  8
1
 62
     3
100
AcDbMText
 10
-1337.436118930999
 20
673.228593965145
 30
0.0
 40
3.5
 41
0.0
 71
     7
 72
     1
  1
SP
  7
CONVERTER_11
 11
0.0
 21
1.0
 31
0.0
1001
ACAD
1000
MTEXTBEGIN
1070
    44
1040
0.60024009603842
1000
MTEXTEND
  0
ENDBLK
  5
5DC
330
5D4
100
AcDbEntity
  8
0
100
AcDbBlockEnd
  0
BLOCK
  5
5E8
330
5DF
100
AcDbEntity
  8
0
100
AcDbBlockBegin
  2
*D168
 70
     1
 10
0.0
 20
0.0
 30
0.0
  3
*D168
  1

  0
LINE
  5
5E0
330
5DF
100
AcDbEntity
  8
1
  6
CONTINUOUS
 62
     1
100
AcDbLine
 10
-1535.007553765943
 20
635.9500112793553
 30
0.0
 11
-1528.007553765943
 21
635.9500112793553
 31
0.0
  0
LINE
  5
5E1
330
5DF
100
AcDbEntity
  8
1
  6
CONTINUOUS
 62
     1
100
AcDbLine
 10
-1538.507553785186
 20
635.9500112793553
 30
0.0
 11
-1535.007553765943
 21
635.9500112793553
 31
0.0
  0
LINE
  5
5E2
330
5DF
100
AcDbEntity
  8
1
  6
CONTINUOUS
 62
     1
100
AcDbLine
 10
-1560.376715146711
 20
635.9500112793553
 30
0.0
 11
-1538.507553785186
 21
635.9500112793553
 31
0.0
  0
LINE
  5
5E3
330
5DF
100
AcDbEntity
  8
1
  6
CONTINUOUS
 62
     1
100
AcDbLine
 10
-1535.007553765941
 20
653.7035939649741
 30
0.0
 11
-1535.007553765941
 21
634.9500112793553
 31
0.0
  0
LINE
  5
5E4
330
5DF
100
AcDbEntity
  8
1
  6
CONTINUOUS
 62
     1
100
AcDbLine
 10
-1538.507553785186
 20
653.7035939654425
 30
0.0
 11
-1538.507553785186
 21
634.9500112793553
 31
0.0
  0
SOLID
  5
5E5
330
5DF
100
AcDbEntity
  8
1
 62
     1
100
AcDbTrace
 10
-1542.007553785186
 20
635.4892275377994
 30
0.0
 11
-1542.007553785186
 21
636.4107950209112
 31
0.0
 12
-1538.507553785186
 22
635.9500112793553
 32
0.0
 13
-1538.507553785186
 23
635.9500112793553
 33
0.0
  0
SOLID
  5
5E6
330
5DF
100
AcDbEntity
  8
1
 62
     1
100
AcDbTrace
 10
-1531.507553765943
 20
636.4107950209112
 30
0.0
 11
-1531.507553765943
 21
635.4892275377994
 31
0.0
 12
-1535.007553765943
 22
635.9500112793553
 32
0.0
 13
-1535.007553765943
 23
635.9500112793553
 33
0.0
  0
MTEXT
  5
5E7
330
5DF
100
AcDbEntity
  8
1
 62
     3
100
AcDbMText
 10
-1560.376715146711
 20
638.8250112793553
 30
0.0
 40
3.5
 41
0.0
 71
     7
 72
     1
  1
\C3;3.5\C3;\H2.1;\S+3^ -2;
  7
CONVERTER_11
 11
0.9999999999970619
 21
2.424068405545306E-6
 31
0.0
1001
ACAD
1000
MTEXTBEGIN
1070
    44
1040
0.60024009603842
1000
MTEXTEND
  0
ENDBLK
  5
5E9
330
5DF
100
AcDbEntity
  8
0
100
AcDbBlockEnd
  0
ENDSEC
  0
SECTION
  2
ENTITIES
  0
INSERT
  5
2F0
330
1F
100
AcDbEntity
  8
0
100
AcDbBlockReference
  2
GEN10
 10
-331.6968789999955
 20
-632.3959729999997
 30
0.0
  0
INSERT
  5
2F1
330
1F
100
AcDbEntity
  8
0
100
AcDbBlockReference
  2
GEN7
 10
2054.243832999999
 20
-562.5877409999975
 30
0.0
  0
INSERT
  5
2F2
330
1F
100
AcDbEntity
  8
0
100
AcDbBlockReference
  2
GEN8
 10
2054.243833
 20
671.7209930000026
 30
0.0
  0
INSERT
  5
2F3
330
1F
100
AcDbEntity
  8
0
100
AcDbBlockReference
  2
GEN9
 10
564.4879000000083
 20
672.4379000000054
 30
0.0
  0
INSERT
  5
2F4
330
1F
100
AcDbEntity
  8
0
100
AcDbBlockReference
  2
GEN11
 10
-1027.507499999996
 20
672.4379000000008
 30
0.0
  0
INSERT
  5
2F5
330
1F
100
AcDbEntity
  8
0
100
AcDbBlockReference
  2
_TECNICI__155
 10
1327.629104667345
 20
-837.3746891736482
 30
0.0
  0
LINE
  5
616
330
1F
100
AcDbEntity
  8
1
  6
CONTINUOUS
 62
     7
100
AcDbLine
 10
2655.25820933469
 20
799.9132000000001
 30
0.0
 11
2655.25820933469
 21
-1674.69066889456
 31
0.0
  0
LINE
  5
617
330
1F
100
AcDbEntity
  8
1
  6
CONTINUOUS
 62
     7
100
AcDbLine
 10
-1605.18470977237
 20
799.9132000000001
 30
0.0
 11
2655.25820933469
 21
799.9132000000001
 31
0.0
  0
LINE
  5
618
330
1F
100
AcDbEntity
  8
1
  6
CONTINUOUS
 62
     7
100
AcDbLine
 10
-1605.18470977237
 20
-1674.69066889456
 30
0.0
 11
-1605.18470977237
 21
799.9132000000001
 31
0.0
  0
LINE
  5
619
330
1F
100
AcDbEntity
  8
1
  6
CONTINUOUS
 62
     7
100
AcDbLine
 10
2655.25820933469
 20
-1674.69066889456
 30
0.0
 11
-1605.18470977237
 21
-1674.69066889456
 31
0.0
  0
ENDSEC
  0
SECTION
  2
OBJECTS
  0
DICTIONARY
  5
C
330
0
100
AcDbDictionary
  3
ACAD_GROUP
350
D
  3
ACAD_LAYOUT
350
1A
  3
ACAD_MATERIAL
350
43
  3
ACAD_MLEADERSTYLE
350
6B
  3
ACAD_MLINESTYLE
350
17
  3
ACAD_PLOTSETTINGS
350
19
  3
ACAD_SCALELIST
350
47
  3
ACAD_VISUALSTYLE
350
2A
  3
ACDBHEADERROUNDTRIPXREC
350
61A
  3
ACDBVARIABLEDICTIONARY
350
63B
  0
DICTIONARY
  5
642
330
8
100
AcDbDictionary
280
     1
  3
ACAD_XREC_ROUNDTRIP
360
643
  0
DICTIONARY
  5
D
102
{ACAD_REACTORS
330
C
102
}
330
C
100
AcDbDictionary
  0
DICTIONARY
  5
1A
102
{ACAD_REACTORS
330
C
102
}
330
C
100
AcDbDictionary
  0
DICTIONARY
  5
43
102
{ACAD_REACTORS
330
C
102
}
330
C
100
AcDbDictionary
  3
BYBLOCK
350
45
  3
BYLAYER
350
44
  3
GLOBAL
350
46
  0
DICTIONARY
  5
6B
102
{ACAD_REACTORS
330
C
102
}
330
C
100
AcDbDictionary
  3
STANDARD
350
6C
  0
DICTIONARY
  5
17
102
{ACAD_REACTORS
330
C
102
}
330
C
100
AcDbDictionary
  3
STANDARD
350
18
  0
DICTIONARY
  5
19
102
{ACAD_REACTORS
330
C
102
}
330
C
100
AcDbDictionary
  0
DICTIONARY
  5
47
102
{ACAD_REACTORS
330
C
102
}
330
C
100
AcDbDictionary
  3
A0
350
48
  3
A1
350
49
  3
A2
350
4A
  3
A3
350
4B
  3
A4
350
4C
  3
A5
350
4D
  3
A6
350
4E
  3
A7
350
4F
  3
A8
350
50
  3
A9
350
51
  3
B0
350
52
  3
B1
350
53
  3
B2
350
54
  3
B3
350
55
  3
B4
350
56
  3
B5
350
57
  3
B6
350
58
  3
B7
350
59
  3
B8
350
5A
  3
B9
350
5B
  3
C0
350
5C
  3
C1
350
5D
  3
C2
350
5E
  3
C3
350
5F
  3
C4
350
60
  3
C5
350
61
  3
C6
350
62
  3
C7
350
63
  3
C8
350
64
  3
C9
350
65
  3
D0
350
66
  3
D1
350
67
  3
D2
350
68
  0
DICTIONARY
  5
2A
102
{ACAD_REACTORS
330
C
102
}
330
C
100
AcDbDictionary
  3
2DWIREFRAME
350
2F
  3
BASIC
350
32
  3
BRIGHTEN
350
36
  3
COLORCHANGE
350
3A
  3
CONCEPTUAL
350
34
  3
DIM
350
35
  3
EDGECOLOROFF
350
3D
  3
FACEPATTERN
350
39
  3
FLAT
350
2B
  3
FLATWITHEDGES
350
2C
  3
GOURAUD
350
2D
  3
GOURAUDWITHEDGES
350
2E
  3
HIDDEN
350
31
  3
JITTEROFF
350
3B
  3
LINEPATTERN
350
38
  3
OVERHANGOFF
350
3C
  3
REALISTIC
350
33
  3
SHADED
350
42
  3
SHADED_WITH_EDGES
350
41
  3
SHADES_OF_GRAY
350
3E
  3
SKETCHY
350
3F
  3
THICKEN
350
37
  3
WIREFRAME
350
30
  3
X-RAY
350
40
  0
DICTIONARY
  5
61A
102
{ACAD_REACTORS
330
C
102
}
330
C
100
AcDbDictionary
  3
CEPSNID
350
624
  3
CEPSNTYPE
350
623
  3
DIMSTYLEDATA
350
63A
  3
FINGERPRINTGUID
350
625
  3
HYPERLINKBASE
350
61D
  3
INSUNITS
350
622
  3
LAYOUTDICT
350
61F
  3
LWETCUNION
350
621
  3
PLOTSETDICT
350
620
  3
PSVPSCALE
350
627
  3
PUCSBASE
350
62A
  3
PUCSORGBACK
350
630
  3
PUCSORGBOTTOM
350
62C
  3
PUCSORGFRONT
350
62F
  3
PUCSORGLEFT
350
62D
  3
PUCSORGRIGHT
350
62E
  3
PUCSORGTOP
350
62B
  3
PUCSORTHOREF
350
628
  3
PUCSORTHOVIEW
350
629
  3
STYLESHEET
350
61E
  3
TSTACKALIGN
350
61B
  3
TSTACKSIZE
350
61C
  3
UCSBASE
350
633
  3
UCSORGBACK
350
639
  3
UCSORGBOTTOM
350
635
  3
UCSORGFRONT
350
638
  3
UCSORGLEFT
350
636
  3
UCSORGRIGHT
350
637
  3
UCSORGTOP
350
634
  3
UCSORTHOREF
350
631
  3
UCSORTHOVIEW
350
632
  3
VERSIONGUID
350
626
  0
DICTIONARY
  5
63B
102
{ACAD_REACTORS
330
C
102
}
330
C
100
AcDbDictionary
  3
CANNOSCALE
350
644
  3
CMLEADERSTYLE
350
63D
  3
CTABLESTYLE
350
63C
  3
DIMASSOC
350
640
  3
HIDETEXT
350
641
  3
MSLTSCALE
350
645
  0
XRECORD
  5
643
102
{ACAD_REACTORS
330
642
102
}
330
642
100
AcDbXrecord
102
VTR_0.000_0.000_1.000_1.000_VISUALSTYLE
340
2F
102
VTR_0.000_0.000_1.000_1.000_GRIDDISPLAY
 70
     3
102
VTR_0.000_0.000_1.000_1.000_GRIDMAJOR
 70
     5
102
VTR_0.000_0.000_1.000_1.000_DEFAULTLIGHTING
280
     1
102
VTR_0.000_0.000_1.000_1.000_DEFAULTLIGHTINGTYPE
 70
     1
102
VTR_0.000_0.000_1.000_1.000_BRIGHTNESS
141
0.0
102
VTR_0.000_0.000_1.000_1.000_CONTRAST
142
0.0
  0
MATERIAL
  5
45
102
{ACAD_REACTORS
330
43
102
}
102
{ACAD_XDICTIONARY
360
648
102
}
330
43
100
AcDbMaterial
  1
BYBLOCK
  0
MATERIAL
  5
44
102
{ACAD_REACTORS
330
43
102
}
102
{ACAD_XDICTIONARY
360
646
102
}
330
43
100
AcDbMaterial
  1
BYLAYER
  0
MATERIAL
  5
46
102
{ACAD_REACTORS
330
43
102
}
102
{ACAD_XDICTIONARY
360
64A
102
}
330
43
100
AcDbMaterial
  1
GLOBAL
  0
ACAD_PROXY_OBJECT
  5
6C
102
{ACAD_REACTORS
330
6B
102
}
330
6B
100
AcDbProxyObject
 90
      499
 91
      505
 93
      610
310
40901902A4063FBFFFFFE056BD1B81E855B9FC0AD7A3703D0AD73F4214DD185B99185C9900AD7A3703D0AC73F90141901A02B5E8DC0F42B1CFC02B5E8DC0F42B1CFE5764000000000000300FC0
340
14
340
0
340
11
340
0
 94
        0
1001
ACAD_MLEADERVER
1070
     2
  0
MLINESTYLE
  5
18
102
{ACAD_REACTORS
330
17
102
}
330
17
100
AcDbMlineStyle
  2
Standard
 70
     0
  3

 62
   256
 51
90.0
 52
90.0
 71
     2
 49
0.5
 62
   256
  6
BYLAYER
 49
-0.5
 62
   256
  6
BYLAYER
  0
ACAD_PROXY_OBJECT
  5
48
102
{ACAD_REACTORS
330
47
102
}
330
47
100
AcDbProxyObject
 90
      499
 91
      503
 93
       41
310
903313A31580
  0
ACAD_PROXY_OBJECT
  5
49
102
{ACAD_REACTORS
330
47
102
}
330
47
100
AcDbProxyObject
 90
      499
 91
      503
 93
      105
310
903313A324000000000000004000
  0
ACAD_PROXY_OBJECT
  5
4A
102
{ACAD_REACTORS
330
47
102
}
330
47
100
AcDbProxyObject
 90
      499
 91
      503
 93
      105
310
903313A344000000000000104000
  0
ACAD_PROXY_OBJECT
  5
4B
102
{ACAD_REACTORS
330
47
102
}
330
47
100
AcDbProxyObject
 90
      499
 91
      503
 93
      105
310
903313A354000000000000144000
  0
ACAD_PROXY_OBJECT
  5
4C
102
{ACAD_REACTORS
330
47
102
}
330
47
100
AcDbProxyObject
 90
      499
 91
      503
 93
      105
310
903313A384000000000000204000
  0
ACAD_PROXY_OBJECT
  5
4D
102
{ACAD_REACTORS
330
47
102
}
330
47
100
AcDbProxyObject
 90
      499
 91
      503
 93
      113
310
904313A31304000000000000244000
  0
ACAD_PROXY_OBJECT
  5
4E
102
{ACAD_REACTORS
330
47
102
}
330
47
100
AcDbProxyObject
 90
      499
 91
      503
 93
      113
310
904313A31364000000000000304000
  0
ACAD_PROXY_OBJECT
  5
4F
102
{ACAD_REACTORS
330
47
102
}
330
47
100
AcDbProxyObject
 90
      499
 91
      503
 93
      113
310
904313A32304000000000000344000
  0
ACAD_PROXY_OBJECT
  5
50
102
{ACAD_REACTORS
330
47
102
}
330
47
100
AcDbProxyObject
 90
      499
 91
      503
 93
      113
310
904313A333040000000000003E4000
  0
ACAD_PROXY_OBJECT
  5
51
102
{ACAD_REACTORS
330
47
102
}
330
47
100
AcDbProxyObject
 90
      499
 91
      503
 93
      113
310
904313A34304000000000000444000
  0
ACAD_PROXY_OBJECT
  5
52
102
{ACAD_REACTORS
330
47
102
}
330
47
100
AcDbProxyObject
 90
      499
 91
      503
 93
      113
310
904313A35304000000000000494000
  0
ACAD_PROXY_OBJECT
  5
53
102
{ACAD_REACTORS
330
47
102
}
330
47
100
AcDbProxyObject
 90
      499
 91
      503
 93
      121
310
905313A3130304000000000000594000
  0
ACAD_PROXY_OBJECT
  5
54
102
{ACAD_REACTORS
330
47
102
}
330
47
100
AcDbProxyObject
 90
      499
 91
      503
 93
      105
310
903323A310000000000000010100
  0
ACAD_PROXY_OBJECT
  5
55
102
{ACAD_REACTORS
330
47
102
}
330
47
100
AcDbProxyObject
 90
      499
 91
      503
 93
      105
310
903343A310000000000000410100
  0
ACAD_PROXY_OBJECT
  5
56
102
{ACAD_REACTORS
330
47
102
}
330
47
100
AcDbProxyObject
 90
      499
 91
      503
 93
      105
310
903383A310000000000000810100
  0
ACAD_PROXY_OBJECT
  5
57
102
{ACAD_REACTORS
330
47
102
}
330
47
100
AcDbProxyObject
 90
      499
 91
      503
 93
      113
310
90431303A310000000000000910100
  0
ACAD_PROXY_OBJECT
  5
58
102
{ACAD_REACTORS
330
47
102
}
330
47
100
AcDbProxyObject
 90
      499
 91
      503
 93
      121
310
9053130303A310000000000001650100
  0
ACAD_PROXY_OBJECT
  5
59
102
{ACAD_REACTORS
330
47
102
}
330
47
100
AcDbProxyObject
 90
      499
 91
      503
 93
      257
310
90E312F31323822203D2031272D3022000000000000200FC000000000000284000
  0
ACAD_PROXY_OBJECT
  5
5A
102
{ACAD_REACTORS
330
47
102
}
330
47
100
AcDbProxyObject
 90
      499
 91
      503
 93
      249
310
90D312F363422203D2031272D3022000000000000240FC000000000000284000
  0
ACAD_PROXY_OBJECT
  5
5B
102
{ACAD_REACTORS
330
47
102
}
330
47
100
AcDbProxyObject
 90
      499
 91
      503
 93
      249
310
90D312F333222203D2031272D3022000000000000280FC000000000000284000
  0
ACAD_PROXY_OBJECT
  5
5C
102
{ACAD_REACTORS
330
47
102
}
330
47
100
AcDbProxyObject
 90
      499
 91
      503
 93
      249
310
90D312F313622203D2031272D30220000000000002C0FC000000000000284000
  0
ACAD_PROXY_OBJECT
  5
5D
102
{ACAD_REACTORS
330
47
102
}
330
47
100
AcDbProxyObject
 90
      499
 91
      503
 93
      249
310
90D332F333222203D2031272D30220000000000002E0FC000000000000284000
  0
ACAD_PROXY_OBJECT
  5
5E
102
{ACAD_REACTORS
330
47
102
}
330
47
100
AcDbProxyObject
 90
      499
 91
      503
 93
      241
310
90C312F3822203D2031272D3022000000000000300FC000000000000284000
  0
ACAD_PROXY_OBJECT
  5
5F
102
{ACAD_REACTORS
330
47
102
}
330
47
100
AcDbProxyObject
 90
      499
 91
      503
 93
      249
310
90D332F313622203D2031272D3022000000000000320FC000000000000284000
  0
ACAD_PROXY_OBJECT
  5
60
102
{ACAD_REACTORS
330
47
102
}
330
47
100
AcDbProxyObject
 90
      499
 91
      503
 93
      241
310
90C312F3422203D2031272D3022000000000000340FC000000000000284000
  0
ACAD_PROXY_OBJECT
  5
61
102
{ACAD_REACTORS
330
47
102
}
330
47
100
AcDbProxyObject
 90
      499
 91
      503
 93
      241
310
90C332F3822203D2031272D3022000000000000360FC000000000000284000
  0
ACAD_PROXY_OBJECT
  5
62
102
{ACAD_REACTORS
330
47
102
}
330
47
100
AcDbProxyObject
 90
      499
 91
      503
 93
      241
310
90C312F3222203D2031272D3022000000000000380FC000000000000284000
  0
ACAD_PROXY_OBJECT
  5
63
102
{ACAD_REACTORS
330
47
102
}
330
47
100
AcDbProxyObject
 90
      499
 91
      503
 93
      241
310
90C332F3422203D2031272D30220000000000003A0FC000000000000284000
  0
ACAD_PROXY_OBJECT
  5
64
102
{ACAD_REACTORS
330
47
102
}
330
47
100
AcDbProxyObject
 90
      499
 91
      503
 93
      161
310
90A3122203D2031272D30224000000000000284000
  0
ACAD_PROXY_OBJECT
  5
65
102
{ACAD_REACTORS
330
47
102
}
330
47
100
AcDbProxyObject
 90
      499
 91
      503
 93
      257
310
90E312D312F3222203D2031272D30220000000000003E0FC000000000000284000
  0
ACAD_PROXY_OBJECT
  5
66
102
{ACAD_REACTORS
330
47
102
}
330
47
100
AcDbProxyObject
 90
      499
 91
      503
 93
      225
310
90A3322203D2031272D302200000000000002100000000000000284000
  0
ACAD_PROXY_OBJECT
  5
67
102
{ACAD_REACTORS
330
47
102
}
330
47
100
AcDbProxyObject
 90
      499
 91
      503
 93
      225
310
90A3622203D2031272D302200000000000006100000000000000284000
  0
ACAD_PROXY_OBJECT
  5
68
102
{ACAD_REACTORS
330
47
102
}
330
47
100
AcDbProxyObject
 90
      499
 91
      503
 93
      249
310
90D31272D3022203D2031272D30220000000000000A100000000000000284000
  0
ACAD_PROXY_OBJECT
  5
2F
102
{ACAD_REACTORS
330
2A
102
}
330
2A
100
AcDbProxyObject
 90
      499
 91
      501
 93
      436
310
42CC9915DA5C99599C985B595049028333333333333E33F0000000000000F90107901411070040501600405405064090741402480A0340
1001
ACAD
1000
AcDbSavedByObjectVersion
1070
     0
  0
ACAD_PROXY_OBJECT
  5
32
102
{ACAD_REACTORS
330
2A
102
}
330
2A
100
AcDbProxyObject
 90
      499
 91
      501
 93
      388
310
4150985CDA58D07406404333333333333E33F0000000000000F90107A41107004050150841D405064090741402480A0350
1001
ACAD
1000
AcDbSavedByObjectVersion
1070
     0
  0
ACAD_PROXY_OBJECT
  5
36
102
{ACAD_REACTORS
330
2A
102
}
330
2A
100
AcDbProxyObject
 90
      499
 91
      501
 93
      428
310
42109C9A59DA1D195B90C409028333333333333E33F0000000000000F9010790141107004050150841D405064090741402480A029950
1001
ACAD
1000
AcDbSavedByObjectVersion
1070
     0
  0
ACAD_PROXY_OBJECT
  5
3A
102
{ACAD_REACTORS
330
2A
102
}
330
2A
100
AcDbProxyObject
 90
      499
 91
      501
 93
      452
310
42D0DBDB1BDC90DA185B99D95104090240C333333333333E33F0000000000000F90108901411070040501508421405064090741402480A0350
1001
ACAD
1000
AcDbSavedByObjectVersion
1070
     0
  0
ACAD_PROXY_OBJECT
  5
34
102
{ACAD_REACTORS
330
2A
102
}
330
2A
100
AcDbProxyObject
 90
      499
 91
      501
 93
      500
310
4290DBDB98D95C1D1D585B10940D028333333333333E33F0000000000000F90107902409070040501000000000018199010841D405064090740C02480A0340
1001
ACAD
1000
AcDbSavedByObjectVersion
1070
     0
  0
ACAD_PROXY_OBJECT
  5
35
102
{ACAD_REACTORS
330
2A
102
}
330
2A
100
AcDbProxyObject
 90
      499
 91
      501
 93
      412
310
40D11A5B50B409028333333333333E33F0000000000000F9010790141107004050150841D405064090741402480A02677FFFFFD0
1001
ACAD
1000
AcDbSavedByObjectVersion
1070
     0
  0
ACAD_PROXY_OBJECT
  5
3D
102
{ACAD_REACTORS
330
2A
102
}
330
2A
100
AcDbProxyObject
 90
      499
 91
      501
 93
      452
310
43115919D950DBDB1BDC93D999916409028333333333333E33F0000000000000F9010790141107004050150841D405064090741402480A0350
1001
ACAD
1000
AcDbSavedByObjectVersion
1070
     0
  0
ACAD_PROXY_OBJECT
  5
39
102
{ACAD_REACTORS
330
2A
102
}
330
2A
100
AcDbProxyObject
 90
      499
 91
      501
 93
      444
310
42D19858D95C185D1D195C9B90F409028333333333333E33F0000000000000F9010790141107004050150841D405064090741402480A0350
1001
ACAD
1000
AcDbSavedByObjectVersion
1070
     0
  0
ACAD_PROXY_OBJECT
  5
2B
102
{ACAD_REACTORS
330
2A
102
}
330
2A
100
AcDbProxyObject
 90
      499
 91
      501
 93
      380
310
41119B185D240901404333333333333E33F0000000000000F9010740A907004050150841D405064090741402480A1B50
1001
ACAD
1000
AcDbSavedByObjectVersion
1070
     0
  0
ACAD_PROXY_OBJECT
  5
2C
102
{ACAD_REACTORS
330
2A
102
}
330
2A
100
AcDbProxyObject
 90
      499
 91
      501
 93
      468
310
43519B185D15DA5D1A115919D95CD0140901404333333333333E33F0000000000000F90107409019070040501600405405064090741402480A1B50
1001
ACAD
1000
AcDbSavedByObjectVersion
1070
     0
  0
ACAD_PROXY_OBJECT
  5
2D
102
{ACAD_REACTORS
330
2A
102
}
330
2A
100
AcDbProxyObject
 90
      499
 91
      501
 93
      404
310
41D1DBDD5C985D5910240902404333333333333E33F0000000000000F9010740A9070040501641D405064090741402480A1B50
1001
ACAD
1000
AcDbSavedByObjectVersion
1070
     0
  0
ACAD_PROXY_OBJECT
  5
2E
102
{ACAD_REACTORS
330
2A
102
}
330
2A
100
AcDbProxyObject
 90
      499
 91
      501
 93
      492
310
4411DBDD5C985D5915DA5D1A115919D95CD0340902404333333333333E33F0000000000000F90107409019070040501600405405064090741402480A1B50
1001
ACAD
1000
AcDbSavedByObjectVersion
1070
     0
  0
ACAD_PROXY_OBJECT
  5
31
102
{ACAD_REACTORS
330
2A
102
}
330
2A
100
AcDbProxyObject
 90
      499
 91
      501
 93
      476
310
41921A5919195B90640502408333333333333E33F0000000000000F901079024090700405020000000000001110200405405064090740C02480A0340
1001
ACAD
1000
AcDbSavedByObjectVersion
1070
     0
  0
ACAD_PROXY_OBJECT
  5
3B
102
{ACAD_REACTORS
330
2A
102
}
330
2A
100
AcDbProxyObject
 90
      499
 91
      501
 93
      428
310
42529A5D1D195C93D999914409028333333333333E33F0000000000000F9010790141107004050150A41D405064090741402480A0350
1001
ACAD
1000
AcDbSavedByObjectVersion
1070
     0
  0
ACAD_PROXY_OBJECT
  5
38
102
{ACAD_REACTORS
330
2A
102
}
330
2A
100
AcDbProxyObject
 90
      499
 91
      501
 93
      444
310
42D31A5B995C185D1D195C9B90E409028333333333333E33F0000000000000F9010790141107004050750841D405064090741402483A0350
1001
ACAD
1000
AcDbSavedByObjectVersion
1070
     0
  0
ACAD_PROXY_OBJECT
  5
3C
102
{ACAD_REACTORS
330
2A
102
}
330
2A
100
AcDbProxyObject
 90
      499
 91
      501
 93
      444
310
42D3DD995C9A185B99D3D999915409028333333333333E33F0000000000000F9010790141107004050150941D405064090741402480A0350
1001
ACAD
1000
AcDbSavedByObjectVersion
1070
     0
  0
ACAD_PROXY_OBJECT
  5
33
102
{ACAD_REACTORS
330
2A
102
}
330
2A
100
AcDbProxyObject
 90
      499
 91
      501
 93
      428
310
425499585B1A5CDD1A58D08409038333333333333E33F0000000000000F9010740A907004050150800405405064090740C02480A1B40
1001
ACAD
1000
AcDbSavedByObjectVersion
1070
     0
  0
ACAD_PROXY_OBJECT
  5
42
102
{ACAD_REACTORS
330
2A
102
}
330
2A
100
AcDbProxyObject
 90
      499
 91
      501
 93
      420
310
4194DA1859195911B40902404333333333333E33F0000000000000F9010740A41107004050150800405405064090840C02480A0B40
1001
ACAD
1000
AcDbSavedByObjectVersion
1070
     0
  0
ACAD_PROXY_OBJECT
  5
41
102
{ACAD_REACTORS
330
2A
102
}
330
2A
100
AcDbProxyObject
 90
      499
 91
      501
 93
      516
310
4454DA18591959081DDA5D1A08195919D95CD1A40902404333333333333E33F0000000000000F901074090142907004050250800405405064090740C02480A0B40
1001
ACAD
1000
AcDbSavedByObjectVersion
1070
     0
  0
ACAD_PROXY_OBJECT
  5
3E
102
{ACAD_REACTORS
330
2A
102
}
330
2A
100
AcDbProxyObject
 90
      499
 91
      501
 93
      532
310
4394DA1859195CC81BD98811DC985E5174090240C333333333333E33F0000000000000F901079024090741D01000000000000111010841D405064090740C02480A0340
1001
ACAD
1000
AcDbSavedByObjectVersion
1070
     0
  0
ACAD_PROXY_OBJECT
  5
3F
102
{ACAD_REACTORS
330
2A
102
}
330
2A
100
AcDbProxyObject
 90
      499
 91
      501
 93
      476
310
41D4DAD95D18DA1E51840502408333333333333E33F0000000000000F901079024090741D01000000000000111010B41D405064090741802480A0340
1001
ACAD
1000
AcDbSavedByObjectVersion
1070
     0
  0
ACAD_PROXY_OBJECT
  5
37
102
{ACAD_REACTORS
330
2A
102
}
330
2A
100
AcDbProxyObject
 90
      499
 91
      501
 93
      412
310
41D51A1A58DAD95B90D409028333333333333E33F0000000000000F9010790141107004050150C41D405064090741402480A0350
1001
ACAD
1000
AcDbSavedByObjectVersion
1070
     0
  0
ACAD_PROXY_OBJECT
  5
30
102
{ACAD_REACTORS
330
2A
102
}
330
2A
100
AcDbProxyObject
 90
      499
 91
      501
 93
      420
310
4255DA5C99599C985B595059028333333333333E33F0000000000000F90107901411070040501600405405064090740C02480A0340
1001
ACAD
1000
AcDbSavedByObjectVersion
1070
     0
  0
ACAD_PROXY_OBJECT
  5
40
102
{ACAD_REACTORS
330
2A
102
}
330
2A
100
AcDbProxyObject
 90
      499
 91
      501
 93
      404
310
41560B54985E51940902404000000000000E03F0000000000000F9010740501907004050150841D405064090740C02480A1B40
1001
ACAD
1000
AcDbSavedByObjectVersion
1070
     0
  0
XRECORD
  5
624
102
{ACAD_REACTORS
330
61A
102
}
330
61A
100
AcDbXrecord
340
0
  0
XRECORD
  5
623
102
{ACAD_REACTORS
330
61A
102
}
330
61A
100
AcDbXrecord
 90
        0
  0
XRECORD
  5
63A
102
{ACAD_REACTORS
330
61A
102
}
330
61A
100
AcDbXrecord
1000
DSTYLE
1002
{
1070
   171
 70
     2
1070
   143
 40
25.4
1070
   274
 70
     2
1070
    41
 40
0.18
1070
   141
 40
0.09
1070
   271
 70
     4
1070
    43
 40
0.38
1070
   278
 70
    46
1070
    44
 40
0.18
1070
    42
 40
0.0625
1070
   147
 40
0.09
1070
    77
 70
     0
1070
   272
 70
     4
1070
    73
 70
     1
1070
   172
 70
     0
1070
    74
 70
     1
1070
   283
 70
     1
1070
   340
340
11
1070
   140
 40
0.18
1070
   284
 70
     0
1070
    78
 70
     0
1002
}
  0
XRECORD
  5
625
102
{ACAD_REACTORS
330
61A
102
}
330
61A
100
AcDbXrecord
  1
{a148a9f0-0f95-4af8-9ceb-3de1c0fd2574}
  0
XRECORD
  5
61D
102
{ACAD_REACTORS
330
61A
102
}
330
61A
100
AcDbXrecord
  1

  0
XRECORD
  5
622
102
{ACAD_REACTORS
330
61A
102
}
330
61A
100
AcDbXrecord
 90
        4
  0
XRECORD
  5
61F
102
{ACAD_REACTORS
330
61A
102
}
330
61A
100
AcDbXrecord
340
1A
  0
XRECORD
  5
621
102
{ACAD_REACTORS
330
61A
102
}
330
61A
100
AcDbXrecord
 90
    10781
  0
XRECORD
  5
620
102
{ACAD_REACTORS
330
61A
102
}
330
61A
100
AcDbXrecord
340
19
  0
XRECORD
  5
627
102
{ACAD_REACTORS
330
61A
102
}
330
61A
100
AcDbXrecord
 40
0.0
  0
XRECORD
  5
62A
102
{ACAD_REACTORS
330
61A
102
}
330
61A
100
AcDbXrecord
340
0
  0
XRECORD
  5
630
102
{ACAD_REACTORS
330
61A
102
}
330
61A
100
AcDbXrecord
 10
0.0
 20
0.0
 30
0.0
  0
XRECORD
  5
62C
102
{ACAD_REACTORS
330
61A
102
}
330
61A
100
AcDbXrecord
 10
0.0
 20
0.0
 30
0.0
  0
XRECORD
  5
62F
102
{ACAD_REACTORS
330
61A
102
}
330
61A
100
AcDbXrecord
 10
0.0
 20
0.0
 30
0.0
  0
XRECORD
  5
62D
102
{ACAD_REACTORS
330
61A
102
}
330
61A
100
AcDbXrecord
 10
0.0
 20
0.0
 30
0.0
  0
XRECORD
  5
62E
102
{ACAD_REACTORS
330
61A
102
}
330
61A
100
AcDbXrecord
 10
0.0
 20
0.0
 30
0.0
  0
XRECORD
  5
62B
102
{ACAD_REACTORS
330
61A
102
}
330
61A
100
AcDbXrecord
 10
0.0
 20
0.0
 30
0.0
  0
XRECORD
  5
628
102
{ACAD_REACTORS
330
61A
102
}
330
61A
100
AcDbXrecord
340
0
  0
XRECORD
  5
629
102
{ACAD_REACTORS
330
61A
102
}
330
61A
100
AcDbXrecord
 70
     0
  0
XRECORD
  5
61E
102
{ACAD_REACTORS
330
61A
102
}
330
61A
100
AcDbXrecord
  1

  0
XRECORD
  5
61B
102
{ACAD_REACTORS
330
61A
102
}
330
61A
100
AcDbXrecord
 90
        1
  0
XRECORD
  5
61C
102
{ACAD_REACTORS
330
61A
102
}
330
61A
100
AcDbXrecord
 90
       70
  0
XRECORD
  5
633
102
{ACAD_REACTORS
330
61A
102
}
330
61A
100
AcDbXrecord
340
0
  0
XRECORD
  5
639
102
{ACAD_REACTORS
330
61A
102
}
330
61A
100
AcDbXrecord
 10
0.0
 20
0.0
 30
0.0
  0
XRECORD
  5
635
102
{ACAD_REACTORS
330
61A
102
}
330
61A
100
AcDbXrecord
 10
0.0
 20
0.0
 30
0.0
  0
XRECORD
  5
638
102
{ACAD_REACTORS
330
61A
102
}
330
61A
100
AcDbXrecord
 10
0.0
 20
0.0
 30
0.0
  0
XRECORD
  5
636
102
{ACAD_REACTORS
330
61A
102
}
330
61A
100
AcDbXrecord
 10
0.0
 20
0.0
 30
0.0
  0
XRECORD
  5
637
102
{ACAD_REACTORS
330
61A
102
}
330
61A
100
AcDbXrecord
 10
0.0
 20
0.0
 30
0.0
  0
XRECORD
  5
634
102
{ACAD_REACTORS
330
61A
102
}
330
61A
100
AcDbXrecord
 10
0.0
 20
0.0
 30
0.0
  0
XRECORD
  5
631
102
{ACAD_REACTORS
330
61A
102
}
330
61A
100
AcDbXrecord
340
0
  0
XRECORD
  5
632
102
{ACAD_REACTORS
330
61A
102
}
330
61A
100
AcDbXrecord
 70
     0
  0
XRECORD
  5
626
102
{ACAD_REACTORS
330
61A
102
}
330
61A
100
AcDbXrecord
  1
{FAEB1C32-E019-11D5-929B-00C0DF256EC4}
  0
DICTIONARYVAR
  5
644
102
{ACAD_REACTORS
330
63B
102
}
330
63B
100
DictionaryVariables
280
     0
  1
1:1
  0
DICTIONARYVAR
  5
63D
102
{ACAD_REACTORS
330
63B
102
}
330
63B
100
DictionaryVariables
280
     0
  1
Standard
  0
DICTIONARYVAR
  5
63C
102
{ACAD_REACTORS
330
63B
102
}
330
63B
100
DictionaryVariables
280
     0
  1
Standard
  0
DICTIONARYVAR
  5
640
102
{ACAD_REACTORS
330
63B
102
}
330
63B
100
DictionaryVariables
280
     0
  1
2
  0
DICTIONARYVAR
  5
641
102
{ACAD_REACTORS
330
63B
102
}
330
63B
100
DictionaryVariables
280
     0
  1
1
  0
DICTIONARYVAR
  5
645
102
{ACAD_REACTORS
330
63B
102
}
330
63B
100
DictionaryVariables
280
     0
  1
1
  0
DICTIONARY
  5
648
330
45
100
AcDbDictionary
280
     1
  3
ACAD_XREC_ROUNDTRIP
360
649
  0
DICTIONARY
  5
646
330
44
100
AcDbDictionary
280
     1
  3
ACAD_XREC_ROUNDTRIP
360
647
  0
DICTIONARY
  5
64A
330
46
100
AcDbDictionary
280
     1
  3
ACAD_XREC_ROUNDTRIP
360
64B
  0
XRECORD
  5
649
102
{ACAD_REACTORS
330
648
102
}
330
648
100
AcDbXrecord
102
MATERIAL
148
0.0
149
0.0
149
0.0
 93
        0
 94
      127
282
     0
 72
     1
 77
     1
171
     1
175
     1
179
     1
273
     0
  0
XRECORD
  5
647
102
{ACAD_REACTORS
330
646
102
}
330
646
100
AcDbXrecord
102
MATERIAL
148
0.0
149
0.0
149
0.0
 93
        0
 94
      127
282
     0
 72
     1
 77
     1
171
     1
175
     1
179
     1
273
     0
  0
XRECORD
  5
64B
102
{ACAD_REACTORS
330
64A
102
}
330
64A
100
AcDbXrecord
102
MATERIAL
148
0.0
149
0.0
149
0.0
 93
        0
 94
      127
282
     0
 72
     1
 77
     1
171
     1
175
     1
179
     1
273
     0
  0
ENDSEC
  0
EOF
